  0
SECTION
  2
HEADER
  9
$ACADVER
  1
AC1015
  9
$ACADMAINTVER
 70
     6
  9
$DWGCODEPAGE
  3
ANSI_1252
  9
$INSBASE
 10
0.0
 20
0.0
 30
0.0
  9
$EXTMIN
 10
-0.5
 20
-0.5
 30
-0.5
  9
$EXTMAX
 10
5.0
 20
5.0
 30
5.0
  9
$LIMMIN
 10
-0.5
 20
-0.5
  9
$LIMMAX
 10
5.0
 20
5.0
  9
$ORTHOMODE
 70
     0
  9
$REGENMODE
 70
     1
  9
$FILLMODE
 70
     1
  9
$QTEXTMODE
 70
     0
  9
$MIRRTEXT
 70
     1
  9
$LTSCALE
 40
1.0
  9
$ATTMODE
 70
     1
  9
$TEXTSIZE
 40
0.2
  9
$TRACEWID
 40
0.05
  9
$TEXTSTYLE
  7
Standard
  9
$CLAYER
  8
0
  9
$CELTYPE
  6
ByLayer
  9
$CECOLOR
 62
   256
  9
$CELTSCALE
 40
1.0
  9
$DISPSILH
 70
     0
  9
$DIMSCALE
 40
1.0
  9
$DIMASZ
 40
0.18
  9
$DIMEXO
 40
0.0625
  9
$DIMDLI
 40
0.38
  9
$DIMRND
 40
0.0
  9
$DIMDLE
 40
0.0
  9
$DIMEXE
 40
0.18
  9
$DIMTP
 40
0.0
  9
$DIMTM
 40
0.0
  9
$DIMTXT
 40
0.18
  9
$DIMCEN
 40
0.09
  9
$DIMTSZ
 40
0.0
  9
$DIMTOL
 70
     0
  9
$DIMLIM
 70
     0
  9
$DIMTIH
 70
     1
  9
$DIMTOH
 70
     1
  9
$DIMSE1
 70
     0
  9
$DIMSE2
 70
     0
  9
$DIMTAD
 70
     0
  9
$DIMZIN
 70
     0
  9
$DIMBLK
  1

  9
$DIMASO
 70
     1
  9
$DIMSHO
 70
     1
  9
$DIMPOST
  1

  9
$DIMAPOST
  1

  9
$DIMALT
 70
     0
  9
$DIMALTD
 70
     2
  9
$DIMALTF
 40
25.4
  9
$DIMLFAC
 40
1.0
  9
$DIMTOFL
 70
     0
  9
$DIMTVP
 40
0.0
  9
$DIMTIX
 70
     0
  9
$DIMSOXD
 70
     0
  9
$DIMSAH
 70
     0
  9
$DIMBLK1
  1

  9
$DIMBLK2
  1

  9
$DIMSTYLE
  2
Standard
  9
$DIMCLRD
 70
     0
  9
$DIMCLRE
 70
     0
  9
$DIMCLRT
 70
     0
  9
$DIMTFAC
 40
1.0
  9
$DIMGAP
 40
0.09
  9
$DIMJUST
 70
     0
  9
$DIMSD1
 70
     0
  9
$DIMSD2
 70
     0
  9
$DIMTOLJ
 70
     1
  9
$DIMTZIN
 70
     0
  9
$DIMALTZ
 70
     0
  9
$DIMALTTZ
 70
     0
  9
$DIMUPT
 70
     0
  9
$DIMDEC
 70
     4
  9
$DIMTDEC
 70
     4
  9
$DIMALTU
 70
     2
  9
$DIMALTTD
 70
     2
  9
$DIMTXSTY
  7
Standard
  9
$DIMAUNIT
 70
     0
  9
$DIMADEC
 70
     0
  9
$DIMALTRND
 40
0.0
  9
$DIMAZIN
 70
     0
  9
$DIMDSEP
 70
    46
  9
$DIMATFIT
 70
     3
  9
$DIMFRAC
 70
     0
  9
$DIMLDRBLK
  1

  9
$DIMLUNIT
 70
     2
  9
$DIMLWD
 70
    -2
  9
$DIMLWE
 70
    -2
  9
$DIMTMOVE
 70
     0
  9
$LUNITS
 70
     2
  9
$LUPREC
 70
     4
  9
$SKETCHINC
 40
0.1
  9
$FILLETRAD
 40
0.5
  9
$AUNITS
 70
     0
  9
$AUPREC
 70
     0
  9
$MENU
  1
.
  9
$ELEVATION
 40
0.0
  9
$PELEVATION
 40
0.0
  9
$THICKNESS
 40
0.0
  9
$LIMCHECK
 70
     0
  9
$CHAMFERA
 40
0.0
  9
$CHAMFERB
 40
0.0
  9
$CHAMFERC
 40
0.0
  9
$CHAMFERD
 40
0.0
  9
$SKPOLY
 70
     0
  9
$TDCREATE
 40
2456849.500503472
  9
$TDUCREATE
 40
2456849.417170139
  9
$TDUPDATE
 40
2456849.500853935
  9
$TDUUPDATE
 40
2456849.417520602
  9
$TDINDWG
 40
0.0000000116
  9
$TDUSRTIMER
 40
0.0000000116
  9
$USRTIMER
 70
     1
  9
$ANGBASE
 50
0.0
  9
$ANGDIR
 70
     0
  9
$PDMODE
 70
     0
  9
$PDSIZE
 40
0.0
  9
$PLINEWID
 40
0.0
  9
$SPLFRAME
 70
     0
  9
$SPLINETYPE
 70
     6
  9
$SPLINESEGS
 70
     8
  9
$HANDSEED
  5
46E
  9
$SURFTAB1
 70
     6
  9
$SURFTAB2
 70
     6
  9
$SURFTYPE
 70
     6
  9
$SURFU
 70
     6
  9
$SURFV
 70
     6
  9
$UCSBASE
  2

  9
$UCSNAME
  2

  9
$UCSORG
 10
0.0
 20
0.0
 30
0.0
  9
$UCSXDIR
 10
1.0
 20
0.0
 30
0.0
  9
$UCSYDIR
 10
0.0
 20
1.0
 30
0.0
  9
$UCSORTHOREF
  2

  9
$UCSORTHOVIEW
 70
     0
  9
$UCSORGTOP
 10
0.0
 20
0.0
 30
0.0
  9
$UCSORGBOTTOM
 10
0.0
 20
0.0
 30
0.0
  9
$UCSORGLEFT
 10
0.0
 20
0.0
 30
0.0
  9
$UCSORGRIGHT
 10
0.0
 20
0.0
 30
0.0
  9
$UCSORGFRONT
 10
0.0
 20
0.0
 30
0.0
  9
$UCSORGBACK
 10
0.0
 20
0.0
 30
0.0
  9
$PUCSBASE
  2

  9
$PUCSNAME
  2

  9
$PUCSORG
 10
0.0
 20
0.0
 30
0.0
  9
$PUCSXDIR
 10
1.0
 20
0.0
 30
0.0
  9
$PUCSYDIR
 10
0.0
 20
1.0
 30
0.0
  9
$PUCSORTHOREF
  2

  9
$PUCSORTHOVIEW
 70
     0
  9
$PUCSORGTOP
 10
0.0
 20
0.0
 30
0.0
  9
$PUCSORGBOTTOM
 10
0.0
 20
0.0
 30
0.0
  9
$PUCSORGLEFT
 10
0.0
 20
0.0
 30
0.0
  9
$PUCSORGRIGHT
 10
0.0
 20
0.0
 30
0.0
  9
$PUCSORGFRONT
 10
0.0
 20
0.0
 30
0.0
  9
$PUCSORGBACK
 10
0.0
 20
0.0
 30
0.0
  9
$USERI1
 70
     0
  9
$USERI2
 70
     0
  9
$USERI3
 70
     0
  9
$USERI4
 70
     0
  9
$USERI5
 70
     0
  9
$USERR1
 40
0.0
  9
$USERR2
 40
0.0
  9
$USERR3
 40
0.0
  9
$USERR4
 40
0.0
  9
$USERR5
 40
0.0
  9
$WORLDVIEW
 70
     1
  9
$SHADEDGE
 70
     3
  9
$SHADEDIF
 70
    70
  9
$TILEMODE
 70
     1
  9
$MAXACTVP
 70
    64
  9
$PINSBASE
 10
0.0
 20
0.0
 30
0.0
  9
$PLIMCHECK
 70
     0
  9
$PEXTMIN
 10
-0.5
 20
-0.5
 30
-0.5
  9
$PEXTMAX
 10
5.0
 20
5.0
 30
5.0
  9
$PLIMMIN
 10
-0.5
 20
-0.5
  9
$PLIMMAX
 10
5.0
 20
5.0
  9
$UNITMODE
 70
     0
  9
$VISRETAIN
 70
     1
  9
$PLINEGEN
 70
     0
  9
$PSLTSCALE
 70
     1
  9
$TREEDEPTH
 70
  3020
  9
$CMLSTYLE
  2
Standard
  9
$CMLJUST
 70
     0
  9
$CMLSCALE
 40
1.0
  9
$PROXYGRAPHICS
 70
     1
  9
$MEASUREMENT
 70
     1
  9
$CELWEIGHT
370
    18
  9
$ENDCAPS
280
     0
  9
$JOINSTYLE
280
     0
  9
$LWDISPLAY
290
     1
  9
$INSUNITS
 70
     4
  9
$HYPERLINKBASE
  1

  9
$STYLESHEET
  1

  9
$XEDIT
290
     1
  9
$CEPSNTYPE
380
     0
  9
$PSTYLEMODE
290
     1
  9
$FINGERPRINTGUID
  2
{492744A4-24CB-48C1-AA9B-6223D5964F20}
  9
$VERSIONGUID
  2
{FAEB1C32-E019-11D5-929B-00C0DF256EC4}
  9
$EXTNAMES
290
     1
  9
$PSVPSCALE
 40
0.0
  9
$OLESTARTUP
290
     0
  0
ENDSEC
  0
SECTION
  2
CLASSES
  0
CLASS
  1
ACDBDICTIONARYWDFLT
  2
AcDbDictionaryWithDefault
  3
ObjectDBX Classes
 90
        0
280
     0
281
     0
  0
CLASS
  1
VISUALSTYLE
  2
AcDbVisualStyle
  3
ObjectDBX Classes
 90
     4095
280
     0
281
     0
  0
CLASS
  1
MATERIAL
  2
AcDbMaterial
  3
ObjectDBX Classes
 90
     1153
280
     0
281
     0
  0
CLASS
  1
SCALE
  2
AcDbScale
  3
ObjectDBX Classes
 90
     1153
280
     0
281
     0
  0
CLASS
  1
SUN
  2
AcDbSun
  3
SCENEOE
 90
     1153
280
     0
281
     0
  0
CLASS
  1
DIMASSOC
  2
AcDbDimAssoc
  3
"AcDbDimAssoc|Product Desc:     AcDim ARX App For Dimension|Company:          Autodesk, Inc.|WEB Address:      www.autodesk.com"
 90
        0
280
     0
281
     0
  0
CLASS
  1
DICTIONARYVAR
  2
AcDbDictionaryVar
  3
ObjectDBX Classes
 90
        0
280
     0
281
     0
  0
CLASS
  1
ACDBPLACEHOLDER
  2
AcDbPlaceHolder
  3
ObjectDBX Classes
 90
        0
280
     0
281
     0
  0
CLASS
  1
LAYOUT
  2
AcDbLayout
  3
ObjectDBX Classes
 90
        0
280
     0
281
     0
  0
ENDSEC
  0
SECTION
  2
TABLES
  0
TABLE
  2
VPORT
  5
8
330
0
100
AcDbSymbolTable
 70
    17
  0
VPORT
  5
29
330
8
100
AcDbSymbolTableRecord
100
AcDbViewportTableRecord
  2
DUMMY
 70
     0
 10
0.0
 20
0.0
 11
1.0
 21
1.0
 12
10.429907
 22
4.5
 13
0.0
 23
0.0
 14
0.5
 24
0.5
 15
0.5
 25
0.5
 16
0.0
 26
0.0
 36
1.0
 17
0.0
 27
0.0
 37
0.0
 40
9.0
 41
1.972973
 42
50.0
 43
0.0
 44
0.0
 50
0.0
 51
0.0
 71
     0
 72
   100
 73
     1
 74
     3
 75
     0
 76
     0
 77
     0
 78
     0
281
     0
 65
     1
110
0.0
120
0.0
130
0.0
111
1.0
121
0.0
131
0.0
112
0.0
122
1.0
132
0.0
 79
     0
146
0.0
  0
VPORT
  5
41B
330
8
100
AcDbSymbolTableRecord
100
AcDbViewportTableRecord
  2
*ACTIVE
 70
     0
 10
0.0
 20
0.0
 11
1.0
 21
1.0
 12
105.0
 22
148.5
 13
0.0
 23
0.0
 14
0.5
 24
0.5
 15
0.5
 25
0.5
 16
0.0
 26
0.0
 36
1.0
 17
0.0
 27
0.0
 37
0.0
 40
254.0
 41
0.069908
 42
50.0
 43
529.357852
 44
-529.357852
 50
0.0
 51
0.0
 71
     0
 72
   100
 73
     1
 74
     3
 75
     0
 76
     0
 77
     0
 78
     0
281
     0
 65
     1
110
0.0
120
0.0
130
0.0
111
1.0
121
0.0
131
0.0
112
0.0
122
1.0
132
0.0
 79
     0
146
0.0
  0
VPORT
  5
41D
330
8
100
AcDbSymbolTableRecord
100
AcDbViewportTableRecord
  2
L1
 70
     0
 10
0.0
 20
0.0
 11
1.0
 21
1.0
 12
105.0
 22
148.5
 13
0.0
 23
0.0
 14
0.5
 24
0.5
 15
0.5
 25
0.5
 16
0.0
 26
0.0
 36
1.0
 17
0.0
 27
0.0
 37
0.0
 40
254.0
 41
0.069908
 42
50.0
 43
529.357852
 44
-529.357852
 50
0.0
 51
0.0
 71
     0
 72
   100
 73
     1
 74
     3
 75
     0
 76
     0
 77
     0
 78
     0
281
     0
 65
     1
110
0.0
120
0.0
130
0.0
111
1.0
121
0.0
131
0.0
112
0.0
122
1.0
132
0.0
 79
     0
146
0.0
  0
VPORT
  5
41E
330
8
100
AcDbSymbolTableRecord
100
AcDbViewportTableRecord
  2
L2
 70
     0
 10
0.0
 20
0.0
 11
0.5
 21
1.0
 12
0.0
 22
0.0
 13
0.0
 23
0.0
 14
0.5
 24
0.5
 15
0.5
 25
0.5
 16
0.0
 26
-1.0
 36
0.0
 17
0.0
 27
0.0
 37
0.0
 40
1884.3578
 41
0.009423
 42
50.0
 43
976.768413
 44
-976.768413
 50
0.0
 51
0.0
 71
     0
 72
   100
 73
     1
 74
     3
 75
     0
 76
     0
 77
     0
 78
     0
281
     0
 65
     1
110
0.0
120
0.0
130
0.0
111
1.0
121
0.0
131
0.0
112
0.0
122
1.0
132
0.0
 79
     0
146
0.0
  0
VPORT
  5
41F
330
8
100
AcDbSymbolTableRecord
100
AcDbViewportTableRecord
  2
L2
 70
     0
 10
0.5
 20
0.0
 11
1.0
 21
1.0
 12
0.0
 22
0.0
 13
0.0
 23
0.0
 14
0.5
 24
0.5
 15
0.5
 25
0.5
 16
1.0
 26
0.0
 36
0.0
 17
0.0
 27
0.0
 37
0.0
 40
1884.3578
 41
0.009423
 42
50.0
 43
950.699784
 44
-950.699784
 50
0.0
 51
0.0
 71
     0
 72
   100
 73
     1
 74
     3
 75
     0
 76
     0
 77
     0
 78
     0
281
     0
 65
     1
110
0.0
120
0.0
130
0.0
111
1.0
121
0.0
131
0.0
112
0.0
122
1.0
132
0.0
 79
     0
146
0.0
  0
VPORT
  5
420
330
8
100
AcDbSymbolTableRecord
100
AcDbViewportTableRecord
  2
L3
 70
     0
 10
0.0
 20
0.5
 11
1.0
 21
1.0
 12
105.0
 22
148.5
 13
0.0
 23
0.0
 14
0.5
 24
0.5
 15
0.5
 25
0.5
 16
0.0
 26
0.0
 36
1.0
 17
0.0
 27
0.0
 37
0.0
 40
254.0
 41
0.069908
 42
50.0
 43
529.357852
 44
-529.357852
 50
0.0
 51
0.0
 71
     0
 72
   100
 73
     1
 74
     3
 75
     0
 76
     0
 77
     0
 78
     0
281
     0
 65
     1
110
0.0
120
0.0
130
0.0
111
1.0
121
0.0
131
0.0
112
0.0
122
1.0
132
0.0
 79
     0
146
0.0
  0
VPORT
  5
421
330
8
100
AcDbSymbolTableRecord
100
AcDbViewportTableRecord
  2
L3
 70
     0
 10
0.0
 20
0.0
 11
1.0
 21
0.5
 12
0.0
 22
0.0
 13
0.0
 23
0.0
 14
0.5
 24
0.5
 15
0.5
 25
0.5
 16
0.0
 26
-1.0
 36
0.0
 17
0.0
 27
0.0
 37
0.0
 40
1884.3578
 41
0.009423
 42
50.0
 43
976.768413
 44
-976.768413
 50
0.0
 51
0.0
 71
     0
 72
   100
 73
     1
 74
     3
 75
     0
 76
     0
 77
     0
 78
     0
281
     0
 65
     1
110
0.0
120
0.0
130
0.0
111
1.0
121
0.0
131
0.0
112
0.0
122
1.0
132
0.0
 79
     0
146
0.0
  0
VPORT
  5
422
330
8
100
AcDbSymbolTableRecord
100
AcDbViewportTableRecord
  2
L4
 70
     0
 10
0.0
 20
0.5
 11
0.5
 21
1.0
 12
105.0
 22
148.5
 13
0.0
 23
0.0
 14
0.5
 24
0.5
 15
0.5
 25
0.5
 16
0.0
 26
0.0
 36
1.0
 17
0.0
 27
0.0
 37
0.0
 40
254.0
 41
0.069908
 42
50.0
 43
529.357852
 44
-529.357852
 50
0.0
 51
0.0
 71
     0
 72
   100
 73
     1
 74
     3
 75
     0
 76
     0
 77
     0
 78
     0
281
     0
 65
     1
110
0.0
120
0.0
130
0.0
111
1.0
121
0.0
131
0.0
112
0.0
122
1.0
132
0.0
 79
     0
146
0.0
  0
VPORT
  5
423
330
8
100
AcDbSymbolTableRecord
100
AcDbViewportTableRecord
  2
L4
 70
     0
 10
0.0
 20
0.0
 11
0.5
 21
0.5
 12
0.0
 22
0.0
 13
0.0
 23
0.0
 14
0.5
 24
0.5
 15
0.5
 25
0.5
 16
0.0
 26
-1.0
 36
0.0
 17
0.0
 27
0.0
 37
0.0
 40
1884.3578
 41
0.009423
 42
50.0
 43
976.768413
 44
-976.768413
 50
0.0
 51
0.0
 71
     0
 72
   100
 73
     1
 74
     3
 75
     0
 76
     0
 77
     0
 78
     0
281
     0
 65
     1
110
0.0
120
0.0
130
0.0
111
1.0
121
0.0
131
0.0
112
0.0
122
1.0
132
0.0
 79
     0
146
0.0
  0
VPORT
  5
424
330
8
100
AcDbSymbolTableRecord
100
AcDbViewportTableRecord
  2
L4
 70
     0
 10
0.5
 20
0.0
 11
1.0
 21
0.5
 12
0.0
 22
0.0
 13
0.0
 23
0.0
 14
0.5
 24
0.5
 15
0.5
 25
0.5
 16
1.0
 26
0.0
 36
0.0
 17
0.0
 27
0.0
 37
0.0
 40
1884.3578
 41
0.009423
 42
50.0
 43
950.699784
 44
-950.699784
 50
0.0
 51
0.0
 71
     0
 72
   100
 73
     1
 74
     3
 75
     0
 76
     0
 77
     0
 78
     0
281
     0
 65
     1
110
0.0
120
0.0
130
0.0
111
1.0
121
0.0
131
0.0
112
0.0
122
1.0
132
0.0
 79
     0
146
0.0
  0
VPORT
  5
425
330
8
100
AcDbSymbolTableRecord
100
AcDbViewportTableRecord
  2
L4
 70
     0
 10
0.5
 20
0.5
 11
1.0
 21
1.0
 12
0.0
 22
0.0
 13
0.0
 23
0.0
 14
0.5
 24
0.5
 15
0.5
 25
0.5
 16
0.5773502691896258
 26
-0.5773502691896258
 36
0.5773502691896258
 17
0.0
 27
0.0
 37
0.0
 40
1852.624324
 41
0.009585
 42
50.0
 43
965.414942
 44
-965.414942
 50
0.0
 51
0.0
 71
     0
 72
   100
 73
     1
 74
     3
 75
     0
 76
     0
 77
     0
 78
     0
281
     0
 65
     1
110
0.0
120
0.0
130
0.0
111
1.0
121
0.0
131
0.0
112
0.0
122
1.0
132
0.0
 79
     0
146
0.0
  0
VPORT
  5
426
330
8
100
AcDbSymbolTableRecord
100
AcDbViewportTableRecord
  2
L6
 70
     0
 10
0.0
 20
0.5
 11
0.333333
 21
1.0
 12
0.0
 22
0.0
 13
0.0
 23
0.0
 14
0.5
 24
0.5
 15
0.5
 25
0.5
 16
0.7188730927569433
 26
-0.5850486126764433
 36
0.3754192287502549
 17
0.0
 27
0.0
 37
0.0
 40
1956.751821
 41
0.009075
 42
50.0
 43
1012.623298
 44
-1012.623298
 50
0.0
 51
0.0
 71
     0
 72
   100
 73
     1
 74
     3
 75
     0
 76
     0
 77
     0
 78
     0
281
     0
 65
     1
110
0.0
120
0.0
130
0.0
111
1.0
121
0.0
131
0.0
112
0.0
122
1.0
132
0.0
 79
     0
146
0.0
  0
VPORT
  5
427
330
8
100
AcDbSymbolTableRecord
100
AcDbViewportTableRecord
  2
L6
 70
     0
 10
0.0
 20
0.0
 11
0.333333
 21
0.5
 12
0.0
 22
0.0
 13
0.0
 23
0.0
 14
0.5
 24
0.5
 15
0.5
 25
0.5
 16
-1.0
 26
0.0
 36
0.0
 17
0.0
 27
0.0
 37
0.0
 40
1884.3578
 41
0.009423
 42
50.0
 43
950.699784
 44
-950.699784
 50
0.0
 51
0.0
 71
     0
 72
   100
 73
     1
 74
     3
 75
     0
 76
     0
 77
     0
 78
     0
281
     0
 65
     1
110
0.0
120
0.0
130
0.0
111
1.0
121
0.0
131
0.0
112
0.0
122
1.0
132
0.0
 79
     0
146
0.0
  0
VPORT
  5
428
330
8
100
AcDbSymbolTableRecord
100
AcDbViewportTableRecord
  2
L6
 70
     0
 10
0.333333
 20
0.5
 11
0.666667
 21
1.0
 12
105.0
 22
148.5
 13
0.0
 23
0.0
 14
0.5
 24
0.5
 15
0.5
 25
0.5
 16
0.0
 26
0.0
 36
1.0
 17
0.0
 27
0.0
 37
0.0
 40
254.0
 41
0.069908
 42
50.0
 43
529.357852
 44
-529.357852
 50
0.0
 51
0.0
 71
     0
 72
   100
 73
     1
 74
     3
 75
     0
 76
     0
 77
     0
 78
     0
281
     0
 65
     1
110
0.0
120
0.0
130
0.0
111
1.0
121
0.0
131
0.0
112
0.0
122
1.0
132
0.0
 79
     0
146
0.0
  0
VPORT
  5
429
330
8
100
AcDbSymbolTableRecord
100
AcDbViewportTableRecord
  2
L6
 70
     0
 10
0.333333
 20
0.0
 11
0.666667
 21
0.5
 12
0.0
 22
0.0
 13
0.0
 23
0.0
 14
0.5
 24
0.5
 15
0.5
 25
0.5
 16
0.0
 26
-1.0
 36
0.0
 17
0.0
 27
0.0
 37
0.0
 40
1884.3578
 41
0.009423
 42
50.0
 43
976.768413
 44
-976.768413
 50
0.0
 51
0.0
 71
     0
 72
   100
 73
     1
 74
     3
 75
     0
 76
     0
 77
     0
 78
     0
281
     0
 65
     1
110
0.0
120
0.0
130
0.0
111
1.0
121
0.0
131
0.0
112
0.0
122
1.0
132
0.0
 79
     0
146
0.0
  0
VPORT
  5
42A
330
8
100
AcDbSymbolTableRecord
100
AcDbViewportTableRecord
  2
L6
 70
     0
 10
0.666667
 20
0.5
 11
1.0
 21
1.0
 12
0.0
 22
0.0
 13
0.0
 23
0.0
 14
0.5
 24
0.5
 15
0.5
 25
0.5
 16
0.5773502691896258
 26
-0.5773502691896258
 36
0.5773502691896258
 17
0.0
 27
0.0
 37
0.0
 40
1852.624324
 41
0.009585
 42
50.0
 43
965.414942
 44
-965.414942
 50
0.0
 51
0.0
 71
     0
 72
   100
 73
     1
 74
     3
 75
     0
 76
     0
 77
     0
 78
     0
281
     0
 65
     1
110
0.0
120
0.0
130
0.0
111
1.0
121
0.0
131
0.0
112
0.0
122
1.0
132
0.0
 79
     0
146
0.0
  0
VPORT
  5
42B
330
8
100
AcDbSymbolTableRecord
100
AcDbViewportTableRecord
  2
L6
 70
     0
 10
0.666667
 20
0.0
 11
1.0
 21
0.5
 12
0.0
 22
0.0
 13
0.0
 23
0.0
 14
0.5
 24
0.5
 15
0.5
 25
0.5
 16
1.0
 26
0.0
 36
0.0
 17
0.0
 27
0.0
 37
0.0
 40
1884.3578
 41
0.009423
 42
50.0
 43
950.699784
 44
-950.699784
 50
0.0
 51
0.0
 71
     0
 72
   100
 73
     1
 74
     3
 75
     0
 76
     0
 77
     0
 78
     0
281
     0
 65
     1
110
0.0
120
0.0
130
0.0
111
1.0
121
0.0
131
0.0
112
0.0
122
1.0
132
0.0
 79
     0
146
0.0
  0
ENDTAB
  0
TABLE
  2
LTYPE
  5
5
330
0
100
AcDbSymbolTable
 70
     6
  0
LTYPE
  5
14
330
5
100
AcDbSymbolTableRecord
100
AcDbLinetypeTableRecord
  2
ByBlock
 70
     0
  3

 72
    65
 73
     0
 40
0.0
  0
LTYPE
  5
15
330
5
100
AcDbSymbolTableRecord
100
AcDbLinetypeTableRecord
  2
ByLayer
 70
     0
  3

 72
    65
 73
     0
 40
0.0
  0
LTYPE
  5
16
330
5
100
AcDbSymbolTableRecord
100
AcDbLinetypeTableRecord
  2
Continuous
 70
     0
  3
Solid line
 72
    65
 73
     0
 40
0.0
  0
LTYPE
  5
6A
330
5
100
AcDbSymbolTableRecord
100
AcDbLinetypeTableRecord
  2
CENTER
 70
     0
  3
____ _ ____ _ ____ _ ____
 72
    65
 73
     4
 40
47.4
 49
22.0
 74
     4
 75
     0
340
0
 46
0.0
 50
0.0
 44
0.0
 45
0.0
 49
-8.5
 74
     4
 75
     0
340
0
 46
0.0
 50
0.0
 44
0.0
 45
0.0
 49
8.5
 74
     4
 75
     0
340
0
 46
0.0
 50
0.0
 44
0.0
 45
0.0
 49
-8.5
 74
     4
 75
     0
340
0
 46
0.0
 50
0.0
 44
0.0
 45
0.0
  0
LTYPE
  5
6B
330
5
100
AcDbSymbolTableRecord
100
AcDbLinetypeTableRecord
  2
DASHDOT
 70
     0
  3
_._._._._._._._._._._._._._._._.
 72
    65
 73
     4
 40
70.0
 49
31.0
 74
     4
 75
     0
340
0
 46
0.0
 50
0.0
 44
0.0
 45
0.0
 49
-13.0
 74
     4
 75
     0
340
0
 46
0.0
 50
0.0
 44
0.0
 45
0.0
 49
13.0
 74
     4
 75
     0
340
0
 46
0.0
 50
0.0
 44
0.0
 45
0.0
 49
-13.0
 74
     4
 75
     0
340
0
 46
0.0
 50
0.0
 44
0.0
 45
0.0
  0
LTYPE
  5
6C
330
5
100
AcDbSymbolTableRecord
100
AcDbLinetypeTableRecord
  2
DASHED
 70
     0
  3
__ __ __ __ __ __ __ __ __
 72
    65
 73
     2
 40
25.72
 49
12.86
 74
     4
 75
     0
340
0
 46
0.0
 50
0.0
 44
0.0
 45
0.0
 49
-12.86
 74
     4
 75
     0
340
0
 46
0.0
 50
0.0
 44
0.0
 45
0.0
  0
LTYPE
  5
6D
330
5
100
AcDbSymbolTableRecord
100
AcDbLinetypeTableRecord
  2
DOT
 70
     0
  3
.........................
 72
    65
 73
     2
 40
10.0
 49
0.0
 74
     4
 75
     0
340
0
 46
0.0
 50
0.0
 44
0.0
 45
0.0
 49
-10.0
 74
     4
 75
     0
340
0
 46
0.0
 50
0.0
 44
0.0
 45
0.0
  0
LTYPE
  5
6E
330
5
100
AcDbSymbolTableRecord
100
AcDbLinetypeTableRecord
  2
PHANTOM
 70
     0
  3
____ _ _ ____ _ _ _____ _ _ ____
 72
    65
 73
     6
 40
50.5
 49
18.0
 74
     4
 75
     0
340
0
 46
0.0
 50
0.0
 44
0.0
 45
0.0
 49
-6.5
 74
     4
 75
     0
340
0
 46
0.0
 50
0.0
 44
0.0
 45
0.0
 49
6.5
 74
     4
 75
     0
340
0
 46
0.0
 50
0.0
 44
0.0
 45
0.0
 49
-6.5
 74
     4
 75
     0
340
0
 46
0.0
 50
0.0
 44
0.0
 45
0.0
 49
6.5
 74
     4
 75
     0
340
0
 46
0.0
 50
0.0
 44
0.0
 45
0.0
 49
-6.5
 74
     4
 75
     0
340
0
 46
0.0
 50
0.0
 44
0.0
 45
0.0
  0
ENDTAB
  0
TABLE
  2
LAYER
  5
2
330
0
100
AcDbSymbolTable
 70
     4
  0
LAYER
  5
10
330
2
100
AcDbSymbolTableRecord
100
AcDbLayerTableRecord
  2
0
 70
     0
 62
     7
  6
Continuous
370
    -3
390
F
  0
LAYER
  5
70
330
2
100
AcDbSymbolTableRecord
100
AcDbLayerTableRecord
  2
1
 70
     0
 62
     7
  6
Continuous
370
    -3
390
F
  0
LAYER
  5
7A
330
2
100
AcDbSymbolTableRecord
100
AcDbLayerTableRecord
  2
256
 70
     0
 62
     7
  6
Continuous
370
    -3
390
F
  0
LAYER
  5
330
330
2
100
AcDbSymbolTableRecord
100
AcDbLayerTableRecord
  2
Defpoints
 70
     0
 62
     7
  6
Continuous
290
     0
370
    -3
390
F
  0
ENDTAB
  0
TABLE
  2
STYLE
  5
3
330
0
100
AcDbSymbolTable
 70
     3
  0
STYLE
  5
11
330
3
100
AcDbSymbolTableRecord
100
AcDbTextStyleTableRecord
  2
Standard
 70
     0
 40
0.0
 41
1.0
 50
0.0
 71
     0
 42
0.2
  3
txt
  4

  0
STYLE
  5
25F
330
3
100
AcDbSymbolTableRecord
100
AcDbTextStyleTableRecord
  2
blockfont
 70
     0
 40
0.0
 41
1.0
 50
0.0
 71
     0
 42
0.2
  3
simplex.shx
  4

  0
STYLE
  5
325
330
3
100
AcDbSymbolTableRecord
100
AcDbTextStyleTableRecord
  2
DWGDirectTextStyle
 70
     0
 40
0.0
 41
1.0
 50
0.0
 71
     0
 42
0.2
  3
simplex
  4

  0
ENDTAB
  0
TABLE
  2
VIEW
  5
6
330
0
100
AcDbSymbolTable
 70
     0
  0
ENDTAB
  0
TABLE
  2
UCS
  5
7
330
0
100
AcDbSymbolTable
 70
     0
  0
ENDTAB
  0
TABLE
  2
APPID
  5
9
330
0
100
AcDbSymbolTable
 70
     4
  0
APPID
  5
12
330
9
100
AcDbSymbolTableRecord
100
AcDbRegAppTableRecord
  2
ACAD
 70
     0
  0
APPID
  5
433
330
9
100
AcDbSymbolTableRecord
100
AcDbRegAppTableRecord
  2
ACAD_DSTYLE_DIM_LINETYPE
 70
     0
  0
APPID
  5
434
330
9
100
AcDbSymbolTableRecord
100
AcDbRegAppTableRecord
  2
ACAD_DSTYLE_DIM_EXT1_LINETYPE
 70
     0
  0
APPID
  5
435
330
9
100
AcDbSymbolTableRecord
100
AcDbRegAppTableRecord
  2
ACAD_DSTYLE_DIM_EXT2_LINETYPE
 70
     0
  0
ENDTAB
  0
TABLE
  2
DIMSTYLE
  5
A
330
0
100
AcDbSymbolTable
 70
     1
100
AcDbDimStyleTable
  0
DIMSTYLE
105
27
102
{ACAD_REACTORS
330
32D
330
347
330
351
330
37D
330
396
102
}
330
A
100
AcDbSymbolTableRecord
100
AcDbDimStyleTableRecord
  2
Standard
 70
     0
178
     0
340
11
  0
ENDTAB
  0
TABLE
  2
BLOCK_RECORD
  5
1
330
0
100
AcDbSymbolTable
 70
    16
  0
BLOCK_RECORD
  5
1F
330
1
100
AcDbSymbolTableRecord
100
AcDbBlockTableRecord
  2
*Model_Space
340
22
  0
BLOCK_RECORD
  5
1B
330
1
100
AcDbSymbolTableRecord
100
AcDbBlockTableRecord
  2
*Paper_Space
340
1E
  0
BLOCK_RECORD
  5
23
330
1
100
AcDbSymbolTableRecord
100
AcDbBlockTableRecord
  2
*Paper_Space0
340
26
  0
BLOCK_RECORD
  5
260
330
1
100
AcDbSymbolTableRecord
100
AcDbBlockTableRecord
  2
3RDANG1
340
0
102
{BLKREFS
331
322
102
}
  0
BLOCK_RECORD
  5
331
330
1
100
AcDbSymbolTableRecord
100
AcDbBlockTableRecord
  2
*D2
340
0
  0
BLOCK_RECORD
  5
33E
330
1
100
AcDbSymbolTableRecord
100
AcDbBlockTableRecord
  2
_U0
340
0
  0
BLOCK_RECORD
  5
34A
330
1
100
AcDbSymbolTableRecord
100
AcDbBlockTableRecord
  2
_U1
340
0
  0
BLOCK_RECORD
  5
354
330
1
100
AcDbSymbolTableRecord
100
AcDbBlockTableRecord
  2
*D5
340
0
  0
BLOCK_RECORD
  5
360
330
1
100
AcDbSymbolTableRecord
100
AcDbBlockTableRecord
  2
_U2
340
0
  0
BLOCK_RECORD
  5
369
330
1
100
AcDbSymbolTableRecord
100
AcDbBlockTableRecord
  2
_U3
340
0
102
{BLKREFS
331
370
102
}
  0
BLOCK_RECORD
  5
373
330
1
100
AcDbSymbolTableRecord
100
AcDbBlockTableRecord
  2
_U4
340
0
102
{BLKREFS
331
37A
102
}
  0
BLOCK_RECORD
  5
380
330
1
100
AcDbSymbolTableRecord
100
AcDbBlockTableRecord
  2
*D9
340
0
  0
BLOCK_RECORD
  5
38D
330
1
100
AcDbSymbolTableRecord
100
AcDbBlockTableRecord
  2
_U5
340
0
  0
BLOCK_RECORD
  5
399
330
1
100
AcDbSymbolTableRecord
100
AcDbBlockTableRecord
  2
*D11
340
0
  0
BLOCK_RECORD
  5
3A6
330
1
100
AcDbSymbolTableRecord
100
AcDbBlockTableRecord
  2
_U6
340
0
  0
BLOCK_RECORD
  5
3AF
330
1
100
AcDbSymbolTableRecord
100
AcDbBlockTableRecord
  2
TabularNote1
340
0
102
{BLKREFS
331
3CC
102
}
  0
BLOCK_RECORD
  5
3CF
330
1
100
AcDbSymbolTableRecord
100
AcDbBlockTableRecord
  2
TabularNote2
340
0
102
{BLKREFS
331
3F9
102
}
  0
BLOCK_RECORD
  5
3FC
330
1
100
AcDbSymbolTableRecord
100
AcDbBlockTableRecord
  2
TabularNote3
340
0
102
{BLKREFS
331
418
102
}
  0
ENDTAB
  0
ENDSEC
  0
SECTION
  2
BLOCKS
  0
BLOCK
  5
20
330
1F
100
AcDbEntity
  8
0
100
AcDbBlockBegin
  2
*Model_Space
 70
     0
 10
0.0
 20
0.0
 30
0.0
  3
*Model_Space
  1
*Model_Space
  0
ENDBLK
  5
21
330
1F
100
AcDbEntity
  8
0
100
AcDbBlockEnd
  0
BLOCK
  5
1C
330
1B
100
AcDbEntity
 67
     1
  8
0
100
AcDbBlockBegin
  2
*Paper_Space
 70
     0
 10
0.0
 20
0.0
 30
0.0
  3
*Paper_Space
  1
*Paper_Space
  0
ENDBLK
  5
1D
330
1B
100
AcDbEntity
 67
     1
  8
0
100
AcDbBlockEnd
  0
BLOCK
  5
24
330
23
100
AcDbEntity
  8
0
100
AcDbBlockBegin
  2
*Paper_Space0
 70
     0
 10
0.0
 20
0.0
 30
0.0
  3
*Paper_Space0
  1
*Paper_Space0
  0
ENDBLK
  5
25
330
23
100
AcDbEntity
  8
0
100
AcDbBlockEnd
  0
BLOCK
  5
323
330
260
100
AcDbEntity
  8
0
100
AcDbBlockBegin
  2
3RDANG1
 70
     0
 10
0.0
 20
0.0
 30
0.0
  3
3RDANG1
  1
3RDANG1
  0
LINE
  5
261
330
260
100
AcDbEntity
  8
256
  6
Continuous
 62
    18
370
    13
100
AcDbLine
 10
0.889764
 20
0.818898
 30
0.0
 11
0.590551
 21
0.724409
 31
0.0
  0
LINE
  5
262
330
260
100
AcDbEntity
  8
256
  6
Continuous
 62
    18
370
    13
100
AcDbLine
 10
0.590551
 20
0.724409
 30
0.0
 11
0.590551
 21
0.275591
 31
0.0
  0
LINE
  5
263
330
260
100
AcDbEntity
  8
256
  6
Continuous
 62
    18
370
    13
100
AcDbLine
 10
0.590551
 20
0.275591
 30
0.0
 11
0.889764
 21
0.181102
 31
0.0
  0
LINE
  5
264
330
260
100
AcDbEntity
  8
256
  6
Continuous
 62
    18
370
    13
100
AcDbLine
 10
0.889764
 20
0.181102
 30
0.0
 11
0.889764
 21
0.818898
 31
0.0
  0
LINE
  5
265
330
260
100
AcDbEntity
  8
256
  6
Continuous
 62
    18
370
    13
100
AcDbLine
 10
1.0
 20
0.503937
 30
0.0
 11
0.80315
 21
0.503937
 31
0.0
  0
LINE
  5
266
330
260
100
AcDbEntity
  8
256
  6
Continuous
 62
    18
370
    13
100
AcDbLine
 10
0.692913
 20
0.503937
 30
0.0
 11
0.779528
 21
0.503937
 31
0.0
  0
LINE
  5
267
330
260
100
AcDbEntity
  8
256
  6
Continuous
 62
    18
370
    13
100
AcDbLine
 10
0.480315
 20
0.503937
 30
0.0
 11
0.677165
 21
0.503937
 31
0.0
  0
LINE
  5
268
330
260
100
AcDbEntity
  8
256
  6
Continuous
 62
    18
370
    13
100
AcDbLine
 10
0.173228
 20
0.629921
 30
0.0
 11
0.173228
 21
1.0
 31
0.0
  0
LINE
  5
269
330
260
100
AcDbEntity
  8
256
  6
Continuous
 62
    18
370
    13
100
AcDbLine
 10
0.173228
 20
0.440945
 30
0.0
 11
0.173228
 21
0.559055
 31
0.0
  0
LINE
  5
26A
330
260
100
AcDbEntity
  8
256
  6
Continuous
 62
    18
370
    13
100
AcDbLine
 10
0.173228
 20
0.0
 30
0.0
 11
0.173228
 21
0.370079
 31
0.0
  0
LINE
  5
26B
330
260
100
AcDbEntity
  8
256
  6
Continuous
 62
    18
370
    13
100
AcDbLine
 10
0.346457
 20
0.503937
 30
0.0
 11
0.220472
 21
0.503937
 31
0.0
  0
LINE
  5
26C
330
260
100
AcDbEntity
  8
256
  6
Continuous
 62
    18
370
    13
100
AcDbLine
 10
0.19685
 20
0.503937
 30
0.0
 11
0.149606
 21
0.503937
 31
0.0
  0
LINE
  5
26D
330
260
100
AcDbEntity
  8
256
  6
Continuous
 62
    18
370
    13
100
AcDbLine
 10
0.125984
 20
0.503937
 30
0.0
 11
0.0
 21
0.503937
 31
0.0
  0
LINE
  5
26E
330
260
100
AcDbEntity
  8
256
  6
Continuous
 62
    18
370
    13
100
AcDbLine
 10
0.07874
 20
0.685039
 30
0.0
 11
0.07874
 21
0.661417
 31
0.0
  0
LINE
  5
26F
330
260
100
AcDbEntity
  8
256
  6
Continuous
 62
    18
370
    13
100
AcDbLine
 10
0.07874
 20
0.661417
 30
0.0
 11
0.070866
 21
0.645669
 31
0.0
  0
LINE
  5
270
330
260
100
AcDbEntity
  8
256
  6
Continuous
 62
    18
370
    13
100
AcDbLine
 10
0.070866
 20
0.645669
 30
0.0
 11
0.070866
 21
0.622047
 31
0.0
  0
LINE
  5
271
330
260
100
AcDbEntity
  8
256
  6
Continuous
 62
    18
370
    13
100
AcDbLine
 10
0.070866
 20
0.622047
 30
0.0
 11
0.070866
 21
0.606299
 31
0.0
  0
LINE
  5
272
330
260
100
AcDbEntity
  8
256
  6
Continuous
 62
    18
370
    13
100
AcDbLine
 10
0.070866
 20
0.606299
 30
0.0
 11
0.062992
 21
0.582677
 31
0.0
  0
LINE
  5
273
330
260
100
AcDbEntity
  8
256
  6
Continuous
 62
    18
370
    13
100
AcDbLine
 10
0.062992
 20
0.582677
 30
0.0
 11
0.062992
 21
0.559055
 31
0.0
  0
LINE
  5
274
330
260
100
AcDbEntity
  8
256
  6
Continuous
 62
    18
370
    13
100
AcDbLine
 10
0.062992
 20
0.559055
 30
0.0
 11
0.062992
 21
0.535433
 31
0.0
  0
LINE
  5
275
330
260
100
AcDbEntity
  8
256
  6
Continuous
 62
    18
370
    13
100
AcDbLine
 10
0.062992
 20
0.535433
 30
0.0
 11
0.062992
 21
0.519685
 31
0.0
  0
LINE
  5
276
330
260
100
AcDbEntity
  8
256
  6
Continuous
 62
    18
370
    13
100
AcDbLine
 10
0.062992
 20
0.519685
 30
0.0
 11
0.062992
 21
0.496063
 31
0.0
  0
LINE
  5
277
330
260
100
AcDbEntity
  8
256
  6
Continuous
 62
    18
370
    13
100
AcDbLine
 10
0.062992
 20
0.496063
 30
0.0
 11
0.062992
 21
0.472441
 31
0.0
  0
LINE
  5
278
330
260
100
AcDbEntity
  8
256
  6
Continuous
 62
    18
370
    13
100
AcDbLine
 10
0.062992
 20
0.472441
 30
0.0
 11
0.062992
 21
0.448819
 31
0.0
  0
LINE
  5
279
330
260
100
AcDbEntity
  8
256
  6
Continuous
 62
    18
370
    13
100
AcDbLine
 10
0.062992
 20
0.448819
 30
0.0
 11
0.062992
 21
0.425197
 31
0.0
  0
LINE
  5
27A
330
260
100
AcDbEntity
  8
256
  6
Continuous
 62
    18
370
    13
100
AcDbLine
 10
0.062992
 20
0.425197
 30
0.0
 11
0.070866
 21
0.409449
 31
0.0
  0
LINE
  5
27B
330
260
100
AcDbEntity
  8
256
  6
Continuous
 62
    18
370
    13
100
AcDbLine
 10
0.070866
 20
0.409449
 30
0.0
 11
0.070866
 21
0.385827
 31
0.0
  0
LINE
  5
27C
330
260
100
AcDbEntity
  8
256
  6
Continuous
 62
    18
370
    13
100
AcDbLine
 10
0.070866
 20
0.385827
 30
0.0
 11
0.070866
 21
0.362205
 31
0.0
  0
LINE
  5
27D
330
260
100
AcDbEntity
  8
256
  6
Continuous
 62
    18
370
    13
100
AcDbLine
 10
0.070866
 20
0.362205
 30
0.0
 11
0.07874
 21
0.346457
 31
0.0
  0
LINE
  5
27E
330
260
100
AcDbEntity
  8
256
  6
Continuous
 62
    18
370
    13
100
AcDbLine
 10
0.07874
 20
0.346457
 30
0.0
 11
0.07874
 21
0.322835
 31
0.0
  0
LINE
  5
27F
330
260
100
AcDbEntity
  8
256
  6
Continuous
 62
    18
370
    13
100
AcDbLine
 10
0.07874
 20
0.322835
 30
0.0
 11
0.086614
 21
0.307087
 31
0.0
  0
LINE
  5
280
330
260
100
AcDbEntity
  8
256
  6
Continuous
 62
    18
370
    13
100
AcDbLine
 10
0.086614
 20
0.307087
 30
0.0
 11
0.086614
 21
0.291339
 31
0.0
  0
LINE
  5
281
330
260
100
AcDbEntity
  8
256
  6
Continuous
 62
    18
370
    13
100
AcDbLine
 10
0.086614
 20
0.291339
 30
0.0
 11
0.094488
 21
0.275591
 31
0.0
  0
LINE
  5
282
330
260
100
AcDbEntity
  8
256
  6
Continuous
 62
    18
370
    13
100
AcDbLine
 10
0.094488
 20
0.275591
 30
0.0
 11
0.102362
 21
0.259843
 31
0.0
  0
LINE
  5
283
330
260
100
AcDbEntity
  8
256
  6
Continuous
 62
    18
370
    13
100
AcDbLine
 10
0.102362
 20
0.259843
 30
0.0
 11
0.110236
 21
0.244094
 31
0.0
  0
LINE
  5
284
330
260
100
AcDbEntity
  8
256
  6
Continuous
 62
    18
370
    13
100
AcDbLine
 10
0.110236
 20
0.244094
 30
0.0
 11
0.110236
 21
0.228346
 31
0.0
  0
LINE
  5
285
330
260
100
AcDbEntity
  8
256
  6
Continuous
 62
    18
370
    13
100
AcDbLine
 10
0.110236
 20
0.228346
 30
0.0
 11
0.11811
 21
0.220472
 31
0.0
  0
LINE
  5
286
330
260
100
AcDbEntity
  8
256
  6
Continuous
 62
    18
370
    13
100
AcDbLine
 10
0.11811
 20
0.220472
 30
0.0
 11
0.125984
 21
0.212598
 31
0.0
  0
LINE
  5
287
330
260
100
AcDbEntity
  8
256
  6
Continuous
 62
    18
370
    13
100
AcDbLine
 10
0.125984
 20
0.212598
 30
0.0
 11
0.133858
 21
0.204724
 31
0.0
  0
LINE
  5
288
330
260
100
AcDbEntity
  8
256
  6
Continuous
 62
    18
370
    13
100
AcDbLine
 10
0.133858
 20
0.204724
 30
0.0
 11
0.141732
 21
0.19685
 31
0.0
  0
LINE
  5
289
330
260
100
AcDbEntity
  8
256
  6
Continuous
 62
    18
370
    13
100
AcDbLine
 10
0.141732
 20
0.19685
 30
0.0
 11
0.149606
 21
0.188976
 31
0.0
  0
LINE
  5
28A
330
260
100
AcDbEntity
  8
256
  6
Continuous
 62
    18
370
    13
100
AcDbLine
 10
0.149606
 20
0.188976
 30
0.0
 11
0.15748
 21
0.181102
 31
0.0
  0
LINE
  5
28B
330
260
100
AcDbEntity
  8
256
  6
Continuous
 62
    18
370
    13
100
AcDbLine
 10
0.15748
 20
0.181102
 30
0.0
 11
0.165354
 21
0.181102
 31
0.0
  0
LINE
  5
28C
330
260
100
AcDbEntity
  8
256
  6
Continuous
 62
    18
370
    13
100
AcDbLine
 10
0.165354
 20
0.181102
 30
0.0
 11
0.173228
 21
0.181102
 31
0.0
  0
LINE
  5
28D
330
260
100
AcDbEntity
  8
256
  6
Continuous
 62
    18
370
    13
100
AcDbLine
 10
0.173228
 20
0.181102
 30
0.0
 11
0.181102
 21
0.181102
 31
0.0
  0
LINE
  5
28E
330
260
100
AcDbEntity
  8
256
  6
Continuous
 62
    18
370
    13
100
AcDbLine
 10
0.181102
 20
0.181102
 30
0.0
 11
0.188976
 21
0.181102
 31
0.0
  0
LINE
  5
28F
330
260
100
AcDbEntity
  8
256
  6
Continuous
 62
    18
370
    13
100
AcDbLine
 10
0.188976
 20
0.181102
 30
0.0
 11
0.19685
 21
0.188976
 31
0.0
  0
LINE
  5
290
330
260
100
AcDbEntity
  8
256
  6
Continuous
 62
    18
370
    13
100
AcDbLine
 10
0.19685
 20
0.188976
 30
0.0
 11
0.204724
 21
0.188976
 31
0.0
  0
LINE
  5
291
330
260
100
AcDbEntity
  8
256
  6
Continuous
 62
    18
370
    13
100
AcDbLine
 10
0.204724
 20
0.188976
 30
0.0
 11
0.212598
 21
0.19685
 31
0.0
  0
LINE
  5
292
330
260
100
AcDbEntity
  8
256
  6
Continuous
 62
    18
370
    13
100
AcDbLine
 10
0.212598
 20
0.19685
 30
0.0
 11
0.220472
 21
0.204724
 31
0.0
  0
LINE
  5
293
330
260
100
AcDbEntity
  8
256
  6
Continuous
 62
    18
370
    13
100
AcDbLine
 10
0.220472
 20
0.204724
 30
0.0
 11
0.228346
 21
0.212598
 31
0.0
  0
LINE
  5
294
330
260
100
AcDbEntity
  8
256
  6
Continuous
 62
    18
370
    13
100
AcDbLine
 10
0.228346
 20
0.212598
 30
0.0
 11
0.228346
 21
0.228346
 31
0.0
  0
LINE
  5
295
330
260
100
AcDbEntity
  8
256
  6
Continuous
 62
    18
370
    13
100
AcDbLine
 10
0.228346
 20
0.228346
 30
0.0
 11
0.23622
 21
0.23622
 31
0.0
  0
LINE
  5
296
330
260
100
AcDbEntity
  8
256
  6
Continuous
 62
    18
370
    13
100
AcDbLine
 10
0.23622
 20
0.23622
 30
0.0
 11
0.244094
 21
0.251969
 31
0.0
  0
LINE
  5
297
330
260
100
AcDbEntity
  8
256
  6
Continuous
 62
    18
370
    13
100
AcDbLine
 10
0.244094
 20
0.251969
 30
0.0
 11
0.251969
 21
0.267717
 31
0.0
  0
LINE
  5
298
330
260
100
AcDbEntity
  8
256
  6
Continuous
 62
    18
370
    13
100
AcDbLine
 10
0.251969
 20
0.267717
 30
0.0
 11
0.251969
 21
0.283465
 31
0.0
  0
LINE
  5
299
330
260
100
AcDbEntity
  8
256
  6
Continuous
 62
    18
370
    13
100
AcDbLine
 10
0.251969
 20
0.283465
 30
0.0
 11
0.259843
 21
0.299213
 31
0.0
  0
LINE
  5
29A
330
260
100
AcDbEntity
  8
256
  6
Continuous
 62
    18
370
    13
100
AcDbLine
 10
0.259843
 20
0.299213
 30
0.0
 11
0.267717
 21
0.314961
 31
0.0
  0
LINE
  5
29B
330
260
100
AcDbEntity
  8
256
  6
Continuous
 62
    18
370
    13
100
AcDbLine
 10
0.267717
 20
0.314961
 30
0.0
 11
0.267717
 21
0.338583
 31
0.0
  0
LINE
  5
29C
330
260
100
AcDbEntity
  8
256
  6
Continuous
 62
    18
370
    13
100
AcDbLine
 10
0.267717
 20
0.338583
 30
0.0
 11
0.275591
 21
0.354331
 31
0.0
  0
LINE
  5
29D
330
260
100
AcDbEntity
  8
256
  6
Continuous
 62
    18
370
    13
100
AcDbLine
 10
0.275591
 20
0.354331
 30
0.0
 11
0.275591
 21
0.377953
 31
0.0
  0
LINE
  5
29E
330
260
100
AcDbEntity
  8
256
  6
Continuous
 62
    18
370
    13
100
AcDbLine
 10
0.275591
 20
0.377953
 30
0.0
 11
0.275591
 21
0.393701
 31
0.0
  0
LINE
  5
29F
330
260
100
AcDbEntity
  8
256
  6
Continuous
 62
    18
370
    13
100
AcDbLine
 10
0.275591
 20
0.393701
 30
0.0
 11
0.283465
 21
0.417323
 31
0.0
  0
LINE
  5
2A0
330
260
100
AcDbEntity
  8
256
  6
Continuous
 62
    18
370
    13
100
AcDbLine
 10
0.283465
 20
0.417323
 30
0.0
 11
0.283465
 21
0.440945
 31
0.0
  0
LINE
  5
2A1
330
260
100
AcDbEntity
  8
256
  6
Continuous
 62
    18
370
    13
100
AcDbLine
 10
0.283465
 20
0.440945
 30
0.0
 11
0.283465
 21
0.464567
 31
0.0
  0
LINE
  5
2A2
330
260
100
AcDbEntity
  8
256
  6
Continuous
 62
    18
370
    13
100
AcDbLine
 10
0.283465
 20
0.464567
 30
0.0
 11
0.283465
 21
0.480315
 31
0.0
  0
LINE
  5
2A3
330
260
100
AcDbEntity
  8
256
  6
Continuous
 62
    18
370
    13
100
AcDbLine
 10
0.283465
 20
0.480315
 30
0.0
 11
0.283465
 21
0.503937
 31
0.0
  0
LINE
  5
2A4
330
260
100
AcDbEntity
  8
256
  6
Continuous
 62
    18
370
    13
100
AcDbLine
 10
0.283465
 20
0.503937
 30
0.0
 11
0.283465
 21
0.527559
 31
0.0
  0
LINE
  5
2A5
330
260
100
AcDbEntity
  8
256
  6
Continuous
 62
    18
370
    13
100
AcDbLine
 10
0.283465
 20
0.527559
 30
0.0
 11
0.283465
 21
0.551181
 31
0.0
  0
LINE
  5
2A6
330
260
100
AcDbEntity
  8
256
  6
Continuous
 62
    18
370
    13
100
AcDbLine
 10
0.283465
 20
0.551181
 30
0.0
 11
0.283465
 21
0.574803
 31
0.0
  0
LINE
  5
2A7
330
260
100
AcDbEntity
  8
256
  6
Continuous
 62
    18
370
    13
100
AcDbLine
 10
0.283465
 20
0.574803
 30
0.0
 11
0.283465
 21
0.590551
 31
0.0
  0
LINE
  5
2A8
330
260
100
AcDbEntity
  8
256
  6
Continuous
 62
    18
370
    13
100
AcDbLine
 10
0.283465
 20
0.590551
 30
0.0
 11
0.275591
 21
0.614173
 31
0.0
  0
LINE
  5
2A9
330
260
100
AcDbEntity
  8
256
  6
Continuous
 62
    18
370
    13
100
AcDbLine
 10
0.275591
 20
0.614173
 30
0.0
 11
0.275591
 21
0.637795
 31
0.0
  0
LINE
  5
2AA
330
260
100
AcDbEntity
  8
256
  6
Continuous
 62
    18
370
    13
100
AcDbLine
 10
0.275591
 20
0.637795
 30
0.0
 11
0.267717
 21
0.653543
 31
0.0
  0
LINE
  5
2AB
330
260
100
AcDbEntity
  8
256
  6
Continuous
 62
    18
370
    13
100
AcDbLine
 10
0.267717
 20
0.653543
 30
0.0
 11
0.267717
 21
0.677165
 31
0.0
  0
LINE
  5
2AC
330
260
100
AcDbEntity
  8
256
  6
Continuous
 62
    18
370
    13
100
AcDbLine
 10
0.267717
 20
0.677165
 30
0.0
 11
0.259843
 21
0.692913
 31
0.0
  0
LINE
  5
2AD
330
260
100
AcDbEntity
  8
256
  6
Continuous
 62
    18
370
    13
100
AcDbLine
 10
0.259843
 20
0.692913
 30
0.0
 11
0.259843
 21
0.708661
 31
0.0
  0
LINE
  5
2AE
330
260
100
AcDbEntity
  8
256
  6
Continuous
 62
    18
370
    13
100
AcDbLine
 10
0.259843
 20
0.708661
 30
0.0
 11
0.251969
 21
0.724409
 31
0.0
  0
LINE
  5
2AF
330
260
100
AcDbEntity
  8
256
  6
Continuous
 62
    18
370
    13
100
AcDbLine
 10
0.251969
 20
0.724409
 30
0.0
 11
0.244094
 21
0.740157
 31
0.0
  0
LINE
  5
2B0
330
260
100
AcDbEntity
  8
256
  6
Continuous
 62
    18
370
    13
100
AcDbLine
 10
0.244094
 20
0.740157
 30
0.0
 11
0.244094
 21
0.755906
 31
0.0
  0
LINE
  5
2B1
330
260
100
AcDbEntity
  8
256
  6
Continuous
 62
    18
370
    13
100
AcDbLine
 10
0.244094
 20
0.755906
 30
0.0
 11
0.23622
 21
0.771654
 31
0.0
  0
LINE
  5
2B2
330
260
100
AcDbEntity
  8
256
  6
Continuous
 62
    18
370
    13
100
AcDbLine
 10
0.23622
 20
0.771654
 30
0.0
 11
0.228346
 21
0.779528
 31
0.0
  0
LINE
  5
2B3
330
260
100
AcDbEntity
  8
256
  6
Continuous
 62
    18
370
    13
100
AcDbLine
 10
0.228346
 20
0.779528
 30
0.0
 11
0.220472
 21
0.787402
 31
0.0
  0
LINE
  5
2B4
330
260
100
AcDbEntity
  8
256
  6
Continuous
 62
    18
370
    13
100
AcDbLine
 10
0.220472
 20
0.787402
 30
0.0
 11
0.212598
 21
0.795276
 31
0.0
  0
LINE
  5
2B5
330
260
100
AcDbEntity
  8
256
  6
Continuous
 62
    18
370
    13
100
AcDbLine
 10
0.212598
 20
0.795276
 30
0.0
 11
0.204724
 21
0.80315
 31
0.0
  0
LINE
  5
2B6
330
260
100
AcDbEntity
  8
256
  6
Continuous
 62
    18
370
    13
100
AcDbLine
 10
0.204724
 20
0.80315
 30
0.0
 11
0.19685
 21
0.811024
 31
0.0
  0
LINE
  5
2B7
330
260
100
AcDbEntity
  8
256
  6
Continuous
 62
    18
370
    13
100
AcDbLine
 10
0.19685
 20
0.811024
 30
0.0
 11
0.188976
 21
0.818898
 31
0.0
  0
LINE
  5
2B8
330
260
100
AcDbEntity
  8
256
  6
Continuous
 62
    18
370
    13
100
AcDbLine
 10
0.188976
 20
0.818898
 30
0.0
 11
0.181102
 21
0.818898
 31
0.0
  0
LINE
  5
2B9
330
260
100
AcDbEntity
  8
256
  6
Continuous
 62
    18
370
    13
100
AcDbLine
 10
0.181102
 20
0.818898
 30
0.0
 11
0.173228
 21
0.818898
 31
0.0
  0
LINE
  5
2BA
330
260
100
AcDbEntity
  8
256
  6
Continuous
 62
    18
370
    13
100
AcDbLine
 10
0.173228
 20
0.818898
 30
0.0
 11
0.165354
 21
0.818898
 31
0.0
  0
LINE
  5
2BB
330
260
100
AcDbEntity
  8
256
  6
Continuous
 62
    18
370
    13
100
AcDbLine
 10
0.165354
 20
0.818898
 30
0.0
 11
0.15748
 21
0.818898
 31
0.0
  0
LINE
  5
2BC
330
260
100
AcDbEntity
  8
256
  6
Continuous
 62
    18
370
    13
100
AcDbLine
 10
0.15748
 20
0.818898
 30
0.0
 11
0.149606
 21
0.811024
 31
0.0
  0
LINE
  5
2BD
330
260
100
AcDbEntity
  8
256
  6
Continuous
 62
    18
370
    13
100
AcDbLine
 10
0.149606
 20
0.811024
 30
0.0
 11
0.141732
 21
0.811024
 31
0.0
  0
LINE
  5
2BE
330
260
100
AcDbEntity
  8
256
  6
Continuous
 62
    18
370
    13
100
AcDbLine
 10
0.141732
 20
0.811024
 30
0.0
 11
0.133858
 21
0.80315
 31
0.0
  0
LINE
  5
2BF
330
260
100
AcDbEntity
  8
256
  6
Continuous
 62
    18
370
    13
100
AcDbLine
 10
0.133858
 20
0.80315
 30
0.0
 11
0.133858
 21
0.795276
 31
0.0
  0
LINE
  5
2C0
330
260
100
AcDbEntity
  8
256
  6
Continuous
 62
    18
370
    13
100
AcDbLine
 10
0.133858
 20
0.795276
 30
0.0
 11
0.125984
 21
0.787402
 31
0.0
  0
LINE
  5
2C1
330
260
100
AcDbEntity
  8
256
  6
Continuous
 62
    18
370
    13
100
AcDbLine
 10
0.125984
 20
0.787402
 30
0.0
 11
0.11811
 21
0.771654
 31
0.0
  0
LINE
  5
2C2
330
260
100
AcDbEntity
  8
256
  6
Continuous
 62
    18
370
    13
100
AcDbLine
 10
0.11811
 20
0.771654
 30
0.0
 11
0.110236
 21
0.76378
 31
0.0
  0
LINE
  5
2C3
330
260
100
AcDbEntity
  8
256
  6
Continuous
 62
    18
370
    13
100
AcDbLine
 10
0.110236
 20
0.76378
 30
0.0
 11
0.102362
 21
0.748031
 31
0.0
  0
LINE
  5
2C4
330
260
100
AcDbEntity
  8
256
  6
Continuous
 62
    18
370
    13
100
AcDbLine
 10
0.102362
 20
0.748031
 30
0.0
 11
0.094488
 21
0.732283
 31
0.0
  0
LINE
  5
2C5
330
260
100
AcDbEntity
  8
256
  6
Continuous
 62
    18
370
    13
100
AcDbLine
 10
0.094488
 20
0.732283
 30
0.0
 11
0.094488
 21
0.716535
 31
0.0
  0
LINE
  5
2C6
330
260
100
AcDbEntity
  8
256
  6
Continuous
 62
    18
370
    13
100
AcDbLine
 10
0.094488
 20
0.716535
 30
0.0
 11
0.086614
 21
0.700787
 31
0.0
  0
LINE
  5
2C7
330
260
100
AcDbEntity
  8
256
  6
Continuous
 62
    18
370
    13
100
AcDbLine
 10
0.086614
 20
0.700787
 30
0.0
 11
0.07874
 21
0.685039
 31
0.0
  0
LINE
  5
2C8
330
260
100
AcDbEntity
  8
256
  6
Continuous
 62
    18
370
    13
100
AcDbLine
 10
0.110236
 20
0.645669
 30
0.0
 11
0.110236
 21
0.629921
 31
0.0
  0
LINE
  5
2C9
330
260
100
AcDbEntity
  8
256
  6
Continuous
 62
    18
370
    13
100
AcDbLine
 10
0.110236
 20
0.629921
 30
0.0
 11
0.110236
 21
0.614173
 31
0.0
  0
LINE
  5
2CA
330
260
100
AcDbEntity
  8
256
  6
Continuous
 62
    18
370
    13
100
AcDbLine
 10
0.110236
 20
0.614173
 30
0.0
 11
0.102362
 21
0.606299
 31
0.0
  0
LINE
  5
2CB
330
260
100
AcDbEntity
  8
256
  6
Continuous
 62
    18
370
    13
100
AcDbLine
 10
0.102362
 20
0.606299
 30
0.0
 11
0.102362
 21
0.590551
 31
0.0
  0
LINE
  5
2CC
330
260
100
AcDbEntity
  8
256
  6
Continuous
 62
    18
370
    13
100
AcDbLine
 10
0.102362
 20
0.590551
 30
0.0
 11
0.102362
 21
0.574803
 31
0.0
  0
LINE
  5
2CD
330
260
100
AcDbEntity
  8
256
  6
Continuous
 62
    18
370
    13
100
AcDbLine
 10
0.102362
 20
0.574803
 30
0.0
 11
0.094488
 21
0.559055
 31
0.0
  0
LINE
  5
2CE
330
260
100
AcDbEntity
  8
256
  6
Continuous
 62
    18
370
    13
100
AcDbLine
 10
0.094488
 20
0.559055
 30
0.0
 11
0.094488
 21
0.543307
 31
0.0
  0
LINE
  5
2CF
330
260
100
AcDbEntity
  8
256
  6
Continuous
 62
    18
370
    13
100
AcDbLine
 10
0.094488
 20
0.543307
 30
0.0
 11
0.094488
 21
0.527559
 31
0.0
  0
LINE
  5
2D0
330
260
100
AcDbEntity
  8
256
  6
Continuous
 62
    18
370
    13
100
AcDbLine
 10
0.094488
 20
0.527559
 30
0.0
 11
0.094488
 21
0.511811
 31
0.0
  0
LINE
  5
2D1
330
260
100
AcDbEntity
  8
256
  6
Continuous
 62
    18
370
    13
100
AcDbLine
 10
0.094488
 20
0.511811
 30
0.0
 11
0.094488
 21
0.496063
 31
0.0
  0
LINE
  5
2D2
330
260
100
AcDbEntity
  8
256
  6
Continuous
 62
    18
370
    13
100
AcDbLine
 10
0.094488
 20
0.496063
 30
0.0
 11
0.094488
 21
0.480315
 31
0.0
  0
LINE
  5
2D3
330
260
100
AcDbEntity
  8
256
  6
Continuous
 62
    18
370
    13
100
AcDbLine
 10
0.094488
 20
0.480315
 30
0.0
 11
0.094488
 21
0.464567
 31
0.0
  0
LINE
  5
2D4
330
260
100
AcDbEntity
  8
256
  6
Continuous
 62
    18
370
    13
100
AcDbLine
 10
0.094488
 20
0.464567
 30
0.0
 11
0.094488
 21
0.448819
 31
0.0
  0
LINE
  5
2D5
330
260
100
AcDbEntity
  8
256
  6
Continuous
 62
    18
370
    13
100
AcDbLine
 10
0.094488
 20
0.448819
 30
0.0
 11
0.102362
 21
0.433071
 31
0.0
  0
LINE
  5
2D6
330
260
100
AcDbEntity
  8
256
  6
Continuous
 62
    18
370
    13
100
AcDbLine
 10
0.102362
 20
0.433071
 30
0.0
 11
0.102362
 21
0.417323
 31
0.0
  0
LINE
  5
2D7
330
260
100
AcDbEntity
  8
256
  6
Continuous
 62
    18
370
    13
100
AcDbLine
 10
0.102362
 20
0.417323
 30
0.0
 11
0.102362
 21
0.401575
 31
0.0
  0
LINE
  5
2D8
330
260
100
AcDbEntity
  8
256
  6
Continuous
 62
    18
370
    13
100
AcDbLine
 10
0.102362
 20
0.401575
 30
0.0
 11
0.102362
 21
0.393701
 31
0.0
  0
LINE
  5
2D9
330
260
100
AcDbEntity
  8
256
  6
Continuous
 62
    18
370
    13
100
AcDbLine
 10
0.102362
 20
0.393701
 30
0.0
 11
0.110236
 21
0.377953
 31
0.0
  0
LINE
  5
2DA
330
260
100
AcDbEntity
  8
256
  6
Continuous
 62
    18
370
    13
100
AcDbLine
 10
0.110236
 20
0.377953
 30
0.0
 11
0.110236
 21
0.362205
 31
0.0
  0
LINE
  5
2DB
330
260
100
AcDbEntity
  8
256
  6
Continuous
 62
    18
370
    13
100
AcDbLine
 10
0.110236
 20
0.362205
 30
0.0
 11
0.11811
 21
0.354331
 31
0.0
  0
LINE
  5
2DC
330
260
100
AcDbEntity
  8
256
  6
Continuous
 62
    18
370
    13
100
AcDbLine
 10
0.11811
 20
0.354331
 30
0.0
 11
0.11811
 21
0.338583
 31
0.0
  0
LINE
  5
2DD
330
260
100
AcDbEntity
  8
256
  6
Continuous
 62
    18
370
    13
100
AcDbLine
 10
0.11811
 20
0.338583
 30
0.0
 11
0.125984
 21
0.330709
 31
0.0
  0
LINE
  5
2DE
330
260
100
AcDbEntity
  8
256
  6
Continuous
 62
    18
370
    13
100
AcDbLine
 10
0.125984
 20
0.330709
 30
0.0
 11
0.125984
 21
0.322835
 31
0.0
  0
LINE
  5
2DF
330
260
100
AcDbEntity
  8
256
  6
Continuous
 62
    18
370
    13
100
AcDbLine
 10
0.125984
 20
0.322835
 30
0.0
 11
0.133858
 21
0.307087
 31
0.0
  0
LINE
  5
2E0
330
260
100
AcDbEntity
  8
256
  6
Continuous
 62
    18
370
    13
100
AcDbLine
 10
0.133858
 20
0.307087
 30
0.0
 11
0.133858
 21
0.299213
 31
0.0
  0
LINE
  5
2E1
330
260
100
AcDbEntity
  8
256
  6
Continuous
 62
    18
370
    13
100
AcDbLine
 10
0.133858
 20
0.299213
 30
0.0
 11
0.141732
 21
0.291339
 31
0.0
  0
LINE
  5
2E2
330
260
100
AcDbEntity
  8
256
  6
Continuous
 62
    18
370
    13
100
AcDbLine
 10
0.141732
 20
0.291339
 30
0.0
 11
0.149606
 21
0.291339
 31
0.0
  0
LINE
  5
2E3
330
260
100
AcDbEntity
  8
256
  6
Continuous
 62
    18
370
    13
100
AcDbLine
 10
0.149606
 20
0.291339
 30
0.0
 11
0.149606
 21
0.283465
 31
0.0
  0
LINE
  5
2E4
330
260
100
AcDbEntity
  8
256
  6
Continuous
 62
    18
370
    13
100
AcDbLine
 10
0.149606
 20
0.283465
 30
0.0
 11
0.15748
 21
0.275591
 31
0.0
  0
LINE
  5
2E5
330
260
100
AcDbEntity
  8
256
  6
Continuous
 62
    18
370
    13
100
AcDbLine
 10
0.15748
 20
0.275591
 30
0.0
 11
0.165354
 21
0.275591
 31
0.0
  0
LINE
  5
2E6
330
260
100
AcDbEntity
  8
256
  6
Continuous
 62
    18
370
    13
100
AcDbLine
 10
0.165354
 20
0.275591
 30
0.0
 11
0.165354
 21
0.275591
 31
0.0
  0
LINE
  5
2E7
330
260
100
AcDbEntity
  8
256
  6
Continuous
 62
    18
370
    13
100
AcDbLine
 10
0.165354
 20
0.275591
 30
0.0
 11
0.173228
 21
0.275591
 31
0.0
  0
LINE
  5
2E8
330
260
100
AcDbEntity
  8
256
  6
Continuous
 62
    18
370
    13
100
AcDbLine
 10
0.173228
 20
0.275591
 30
0.0
 11
0.181102
 21
0.275591
 31
0.0
  0
LINE
  5
2E9
330
260
100
AcDbEntity
  8
256
  6
Continuous
 62
    18
370
    13
100
AcDbLine
 10
0.181102
 20
0.275591
 30
0.0
 11
0.181102
 21
0.275591
 31
0.0
  0
LINE
  5
2EA
330
260
100
AcDbEntity
  8
256
  6
Continuous
 62
    18
370
    13
100
AcDbLine
 10
0.181102
 20
0.275591
 30
0.0
 11
0.188976
 21
0.275591
 31
0.0
  0
LINE
  5
2EB
330
260
100
AcDbEntity
  8
256
  6
Continuous
 62
    18
370
    13
100
AcDbLine
 10
0.188976
 20
0.275591
 30
0.0
 11
0.19685
 21
0.283465
 31
0.0
  0
LINE
  5
2EC
330
260
100
AcDbEntity
  8
256
  6
Continuous
 62
    18
370
    13
100
AcDbLine
 10
0.19685
 20
0.283465
 30
0.0
 11
0.19685
 21
0.283465
 31
0.0
  0
LINE
  5
2ED
330
260
100
AcDbEntity
  8
256
  6
Continuous
 62
    18
370
    13
100
AcDbLine
 10
0.19685
 20
0.283465
 30
0.0
 11
0.204724
 21
0.291339
 31
0.0
  0
LINE
  5
2EE
330
260
100
AcDbEntity
  8
256
  6
Continuous
 62
    18
370
    13
100
AcDbLine
 10
0.204724
 20
0.291339
 30
0.0
 11
0.212598
 21
0.299213
 31
0.0
  0
LINE
  5
2EF
330
260
100
AcDbEntity
  8
256
  6
Continuous
 62
    18
370
    13
100
AcDbLine
 10
0.212598
 20
0.299213
 30
0.0
 11
0.212598
 21
0.307087
 31
0.0
  0
LINE
  5
2F0
330
260
100
AcDbEntity
  8
256
  6
Continuous
 62
    18
370
    13
100
AcDbLine
 10
0.212598
 20
0.307087
 30
0.0
 11
0.220472
 21
0.314961
 31
0.0
  0
LINE
  5
2F1
330
260
100
AcDbEntity
  8
256
  6
Continuous
 62
    18
370
    13
100
AcDbLine
 10
0.220472
 20
0.314961
 30
0.0
 11
0.220472
 21
0.322835
 31
0.0
  0
LINE
  5
2F2
330
260
100
AcDbEntity
  8
256
  6
Continuous
 62
    18
370
    13
100
AcDbLine
 10
0.220472
 20
0.322835
 30
0.0
 11
0.228346
 21
0.330709
 31
0.0
  0
LINE
  5
2F3
330
260
100
AcDbEntity
  8
256
  6
Continuous
 62
    18
370
    13
100
AcDbLine
 10
0.228346
 20
0.330709
 30
0.0
 11
0.228346
 21
0.346457
 31
0.0
  0
LINE
  5
2F4
330
260
100
AcDbEntity
  8
256
  6
Continuous
 62
    18
370
    13
100
AcDbLine
 10
0.228346
 20
0.346457
 30
0.0
 11
0.23622
 21
0.354331
 31
0.0
  0
LINE
  5
2F5
330
260
100
AcDbEntity
  8
256
  6
Continuous
 62
    18
370
    13
100
AcDbLine
 10
0.23622
 20
0.354331
 30
0.0
 11
0.23622
 21
0.370079
 31
0.0
  0
LINE
  5
2F6
330
260
100
AcDbEntity
  8
256
  6
Continuous
 62
    18
370
    13
100
AcDbLine
 10
0.23622
 20
0.370079
 30
0.0
 11
0.244094
 21
0.385827
 31
0.0
  0
LINE
  5
2F7
330
260
100
AcDbEntity
  8
256
  6
Continuous
 62
    18
370
    13
100
AcDbLine
 10
0.244094
 20
0.385827
 30
0.0
 11
0.244094
 21
0.393701
 31
0.0
  0
LINE
  5
2F8
330
260
100
AcDbEntity
  8
256
  6
Continuous
 62
    18
370
    13
100
AcDbLine
 10
0.244094
 20
0.393701
 30
0.0
 11
0.244094
 21
0.409449
 31
0.0
  0
LINE
  5
2F9
330
260
100
AcDbEntity
  8
256
  6
Continuous
 62
    18
370
    13
100
AcDbLine
 10
0.244094
 20
0.409449
 30
0.0
 11
0.251969
 21
0.425197
 31
0.0
  0
LINE
  5
2FA
330
260
100
AcDbEntity
  8
256
  6
Continuous
 62
    18
370
    13
100
AcDbLine
 10
0.251969
 20
0.425197
 30
0.0
 11
0.251969
 21
0.440945
 31
0.0
  0
LINE
  5
2FB
330
260
100
AcDbEntity
  8
256
  6
Continuous
 62
    18
370
    13
100
AcDbLine
 10
0.251969
 20
0.440945
 30
0.0
 11
0.251969
 21
0.456693
 31
0.0
  0
LINE
  5
2FC
330
260
100
AcDbEntity
  8
256
  6
Continuous
 62
    18
370
    13
100
AcDbLine
 10
0.251969
 20
0.456693
 30
0.0
 11
0.251969
 21
0.472441
 31
0.0
  0
LINE
  5
2FD
330
260
100
AcDbEntity
  8
256
  6
Continuous
 62
    18
370
    13
100
AcDbLine
 10
0.251969
 20
0.472441
 30
0.0
 11
0.251969
 21
0.488189
 31
0.0
  0
LINE
  5
2FE
330
260
100
AcDbEntity
  8
256
  6
Continuous
 62
    18
370
    13
100
AcDbLine
 10
0.251969
 20
0.488189
 30
0.0
 11
0.251969
 21
0.503937
 31
0.0
  0
LINE
  5
2FF
330
260
100
AcDbEntity
  8
256
  6
Continuous
 62
    18
370
    13
100
AcDbLine
 10
0.251969
 20
0.503937
 30
0.0
 11
0.251969
 21
0.519685
 31
0.0
  0
LINE
  5
300
330
260
100
AcDbEntity
  8
256
  6
Continuous
 62
    18
370
    13
100
AcDbLine
 10
0.251969
 20
0.519685
 30
0.0
 11
0.251969
 21
0.535433
 31
0.0
  0
LINE
  5
301
330
260
100
AcDbEntity
  8
256
  6
Continuous
 62
    18
370
    13
100
AcDbLine
 10
0.251969
 20
0.535433
 30
0.0
 11
0.251969
 21
0.551181
 31
0.0
  0
LINE
  5
302
330
260
100
AcDbEntity
  8
256
  6
Continuous
 62
    18
370
    13
100
AcDbLine
 10
0.251969
 20
0.551181
 30
0.0
 11
0.251969
 21
0.566929
 31
0.0
  0
LINE
  5
303
330
260
100
AcDbEntity
  8
256
  6
Continuous
 62
    18
370
    13
100
AcDbLine
 10
0.251969
 20
0.566929
 30
0.0
 11
0.244094
 21
0.582677
 31
0.0
  0
LINE
  5
304
330
260
100
AcDbEntity
  8
256
  6
Continuous
 62
    18
370
    13
100
AcDbLine
 10
0.244094
 20
0.582677
 30
0.0
 11
0.244094
 21
0.598425
 31
0.0
  0
LINE
  5
305
330
260
100
AcDbEntity
  8
256
  6
Continuous
 62
    18
370
    13
100
AcDbLine
 10
0.244094
 20
0.598425
 30
0.0
 11
0.244094
 21
0.606299
 31
0.0
  0
LINE
  5
306
330
260
100
AcDbEntity
  8
256
  6
Continuous
 62
    18
370
    13
100
AcDbLine
 10
0.244094
 20
0.606299
 30
0.0
 11
0.23622
 21
0.622047
 31
0.0
  0
LINE
  5
307
330
260
100
AcDbEntity
  8
256
  6
Continuous
 62
    18
370
    13
100
AcDbLine
 10
0.23622
 20
0.622047
 30
0.0
 11
0.23622
 21
0.637795
 31
0.0
  0
LINE
  5
308
330
260
100
AcDbEntity
  8
256
  6
Continuous
 62
    18
370
    13
100
AcDbLine
 10
0.23622
 20
0.637795
 30
0.0
 11
0.23622
 21
0.645669
 31
0.0
  0
LINE
  5
309
330
260
100
AcDbEntity
  8
256
  6
Continuous
 62
    18
370
    13
100
AcDbLine
 10
0.23622
 20
0.645669
 30
0.0
 11
0.228346
 21
0.661417
 31
0.0
  0
LINE
  5
30A
330
260
100
AcDbEntity
  8
256
  6
Continuous
 62
    18
370
    13
100
AcDbLine
 10
0.228346
 20
0.661417
 30
0.0
 11
0.228346
 21
0.669291
 31
0.0
  0
LINE
  5
30B
330
260
100
AcDbEntity
  8
256
  6
Continuous
 62
    18
370
    13
100
AcDbLine
 10
0.228346
 20
0.669291
 30
0.0
 11
0.220472
 21
0.677165
 31
0.0
  0
LINE
  5
30C
330
260
100
AcDbEntity
  8
256
  6
Continuous
 62
    18
370
    13
100
AcDbLine
 10
0.220472
 20
0.677165
 30
0.0
 11
0.220472
 21
0.692913
 31
0.0
  0
LINE
  5
30D
330
260
100
AcDbEntity
  8
256
  6
Continuous
 62
    18
370
    13
100
AcDbLine
 10
0.220472
 20
0.692913
 30
0.0
 11
0.212598
 21
0.700787
 31
0.0
  0
LINE
  5
30E
330
260
100
AcDbEntity
  8
256
  6
Continuous
 62
    18
370
    13
100
AcDbLine
 10
0.212598
 20
0.700787
 30
0.0
 11
0.204724
 21
0.708661
 31
0.0
  0
LINE
  5
30F
330
260
100
AcDbEntity
  8
256
  6
Continuous
 62
    18
370
    13
100
AcDbLine
 10
0.204724
 20
0.708661
 30
0.0
 11
0.204724
 21
0.708661
 31
0.0
  0
LINE
  5
310
330
260
100
AcDbEntity
  8
256
  6
Continuous
 62
    18
370
    13
100
AcDbLine
 10
0.204724
 20
0.708661
 30
0.0
 11
0.19685
 21
0.716535
 31
0.0
  0
LINE
  5
311
330
260
100
AcDbEntity
  8
256
  6
Continuous
 62
    18
370
    13
100
AcDbLine
 10
0.19685
 20
0.716535
 30
0.0
 11
0.188976
 21
0.724409
 31
0.0
  0
LINE
  5
312
330
260
100
AcDbEntity
  8
256
  6
Continuous
 62
    18
370
    13
100
AcDbLine
 10
0.188976
 20
0.724409
 30
0.0
 11
0.188976
 21
0.724409
 31
0.0
  0
LINE
  5
313
330
260
100
AcDbEntity
  8
256
  6
Continuous
 62
    18
370
    13
100
AcDbLine
 10
0.188976
 20
0.724409
 30
0.0
 11
0.181102
 21
0.724409
 31
0.0
  0
LINE
  5
314
330
260
100
AcDbEntity
  8
256
  6
Continuous
 62
    18
370
    13
100
AcDbLine
 10
0.181102
 20
0.724409
 30
0.0
 11
0.173228
 21
0.724409
 31
0.0
  0
LINE
  5
315
330
260
100
AcDbEntity
  8
256
  6
Continuous
 62
    18
370
    13
100
AcDbLine
 10
0.173228
 20
0.724409
 30
0.0
 11
0.173228
 21
0.724409
 31
0.0
  0
LINE
  5
316
330
260
100
AcDbEntity
  8
256
  6
Continuous
 62
    18
370
    13
100
AcDbLine
 10
0.173228
 20
0.724409
 30
0.0
 11
0.165354
 21
0.724409
 31
0.0
  0
LINE
  5
317
330
260
100
AcDbEntity
  8
256
  6
Continuous
 62
    18
370
    13
100
AcDbLine
 10
0.165354
 20
0.724409
 30
0.0
 11
0.15748
 21
0.724409
 31
0.0
  0
LINE
  5
318
330
260
100
AcDbEntity
  8
256
  6
Continuous
 62
    18
370
    13
100
AcDbLine
 10
0.15748
 20
0.724409
 30
0.0
 11
0.149606
 21
0.716535
 31
0.0
  0
LINE
  5
319
330
260
100
AcDbEntity
  8
256
  6
Continuous
 62
    18
370
    13
100
AcDbLine
 10
0.149606
 20
0.716535
 30
0.0
 11
0.149606
 21
0.716535
 31
0.0
  0
LINE
  5
31A
330
260
100
AcDbEntity
  8
256
  6
Continuous
 62
    18
370
    13
100
AcDbLine
 10
0.149606
 20
0.716535
 30
0.0
 11
0.141732
 21
0.708661
 31
0.0
  0
LINE
  5
31B
330
260
100
AcDbEntity
  8
256
  6
Continuous
 62
    18
370
    13
100
AcDbLine
 10
0.141732
 20
0.708661
 30
0.0
 11
0.141732
 21
0.700787
 31
0.0
  0
LINE
  5
31C
330
260
100
AcDbEntity
  8
256
  6
Continuous
 62
    18
370
    13
100
AcDbLine
 10
0.141732
 20
0.700787
 30
0.0
 11
0.133858
 21
0.692913
 31
0.0
  0
LINE
  5
31D
330
260
100
AcDbEntity
  8
256
  6
Continuous
 62
    18
370
    13
100
AcDbLine
 10
0.133858
 20
0.692913
 30
0.0
 11
0.125984
 21
0.685039
 31
0.0
  0
LINE
  5
31E
330
260
100
AcDbEntity
  8
256
  6
Continuous
 62
    18
370
    13
100
AcDbLine
 10
0.125984
 20
0.685039
 30
0.0
 11
0.125984
 21
0.677165
 31
0.0
  0
LINE
  5
31F
330
260
100
AcDbEntity
  8
256
  6
Continuous
 62
    18
370
    13
100
AcDbLine
 10
0.125984
 20
0.677165
 30
0.0
 11
0.11811
 21
0.669291
 31
0.0
  0
LINE
  5
320
330
260
100
AcDbEntity
  8
256
  6
Continuous
 62
    18
370
    13
100
AcDbLine
 10
0.11811
 20
0.669291
 30
0.0
 11
0.11811
 21
0.653543
 31
0.0
  0
LINE
  5
321
330
260
100
AcDbEntity
  8
256
  6
Continuous
 62
    18
370
    13
100
AcDbLine
 10
0.11811
 20
0.653543
 30
0.0
 11
0.110236
 21
0.645669
 31
0.0
  0
ENDBLK
  5
324
330
260
100
AcDbEntity
  8
0
100
AcDbBlockEnd
  0
BLOCK
  5
332
330
331
100
AcDbEntity
  8
0
100
AcDbBlockBegin
  2
*D2
 70
     1
 10
0.0
 20
0.0
 30
0.0
  3
*D2
  1
*D2
  0
LINE
  5
334
330
331
100
AcDbEntity
  8
0
 62
    18
370
    -2
100
AcDbLine
 10
88.158401
 20
158.078562
 30
0.0
 11
117.075534
 21
158.078562
 31
0.0
  0
LINE
  5
335
330
331
100
AcDbEntity
  8
0
 62
    18
370
    -2
100
AcDbLine
 10
86.658401
 20
143.078562
 30
0.0
 11
117.075534
 21
143.078562
 31
0.0
  0
LINE
  5
336
330
331
100
AcDbEntity
  8
0
 62
    18
370
    -2
100
AcDbLine
 10
115.075534
 20
161.578562
 30
0.0
 11
115.075534
 21
165.078562
 31
0.0
  0
LINE
  5
337
330
331
100
AcDbEntity
  8
0
 62
    18
370
    -2
100
AcDbLine
 10
115.075534
 20
139.578562
 30
0.0
 11
115.075534
 21
136.078562
 31
0.0
  0
SOLID
  5
338
330
331
100
AcDbEntity
  8
0
 62
    18
100
AcDbTrace
 10
114.492201
 20
161.578562
 30
0.0
 11
115.658868
 21
161.578562
 31
0.0
 12
115.075534
 22
158.078562
 32
0.0
 13
115.075534
 23
158.078562
 33
0.0
  0
SOLID
  5
339
330
331
100
AcDbEntity
  8
0
 62
    18
100
AcDbTrace
 10
115.658868
 20
139.578562
 30
0.0
 11
114.492201
 21
139.578562
 31
0.0
 12
115.075534
 22
143.078562
 32
0.0
 13
115.075534
 23
143.078562
 33
0.0
  0
MTEXT
  5
33A
330
331
100
AcDbEntity
  8
0
 62
    18
370
    18
100
AcDbMText
 10
108.075534
 20
149.119302
 30
0.0
 40
3.5
 41
0.0
 71
     5
 72
     1
  1
\A1;15
  7
blockfont
 11
0.0
 21
1.0
 31
0.0
 73
     1
 44
1.0
  0
POINT
  5
33B
330
331
100
AcDbEntity
  8
Defpoints
 62
     0
100
AcDbPoint
 10
88.158401
 20
158.078562
 30
0.0
  0
POINT
  5
33C
330
331
100
AcDbEntity
  8
Defpoints
 62
     0
100
AcDbPoint
 10
86.658401
 20
143.078562
 30
0.0
  0
POINT
  5
33D
330
331
100
AcDbEntity
  8
Defpoints
 62
     0
100
AcDbPoint
 10
115.075534
 20
143.078562
 30
0.0
  0
ENDBLK
  5
333
330
331
100
AcDbEntity
  8
0
100
AcDbBlockEnd
  0
BLOCK
  5
345
330
33E
100
AcDbEntity
  8
0
100
AcDbBlockBegin
  2
_U0
 70
     0
 10
0.0
 20
0.0
 30
0.0
  3
_U0
  1
_U0
  0
MTEXT
  5
33F
330
33E
100
AcDbEntity
  8
256
  6
Continuous
 62
    18
370
    13
100
AcDbMText
 10
114.455743
 20
148.437531
 30
0.0
 40
3.5
 41
0.0
 71
     7
 72
     5
  1
\W0.9338;3
  7
blockfont
 11
6.123233995736766E-17
 21
1.0
 31
0.0
 73
     2
 44
0.903614
  0
LINE
  5
340
330
33E
100
AcDbEntity
  8
256
 62
    18
370
    13
100
AcDbLine
 10
88.158401
 20
158.078562
 30
0.0
 11
117.075534
 21
158.078562
 31
0.0
  0
LINE
  5
341
330
33E
100
AcDbEntity
  8
256
 62
    18
370
    13
100
AcDbLine
 10
86.659401
 20
143.078562
 30
0.0
 11
117.075534
 21
143.078562
 31
0.0
  0
LINE
  5
342
330
33E
100
AcDbEntity
  8
256
 62
    18
370
    13
100
AcDbLine
 10
115.075534
 20
158.078562
 30
0.0
 11
115.075534
 21
143.078562
 31
0.0
  0
SOLID
  5
343
330
33E
100
AcDbEntity
  8
0
 62
    18
370
    18
100
AcDbTrace
 10
115.075534
 20
158.078562
 30
0.0
 11
116.013357
 21
154.578565
 31
0.0
 12
114.137712
 22
154.578558
 32
0.0
 13
115.075534
 23
158.078562
 33
0.0
  0
SOLID
  5
344
330
33E
100
AcDbEntity
  8
0
 62
    18
370
    18
100
AcDbTrace
 10
115.075534
 20
143.078562
 30
0.0
 11
114.137712
 21
146.578558
 31
0.0
 12
116.013357
 22
146.578565
 32
0.0
 13
115.075534
 23
143.078562
 33
0.0
  0
ENDBLK
  5
346
330
33E
100
AcDbEntity
  8
0
100
AcDbBlockEnd
  0
BLOCK
  5
34F
330
34A
100
AcDbEntity
  8
0
100
AcDbBlockBegin
  2
_U1
 70
     0
 10
0.0
 20
0.0
 30
0.0
  3
_U1
  1
_U1
  0
MTEXT
  5
34B
330
34A
100
AcDbEntity
  8
256
  6
Continuous
 62
    18
370
    13
100
AcDbMText
 10
97.303221
 20
147.804744
 30
0.0
 40
3.5
 41
0.0
 71
     7
 72
     5
  1
\W1.2220;2,5
  7
blockfont
 11
0.9917616233481606
 21
-0.1280971602098236
 31
0.0
 73
     2
 44
0.903614
  0
MTEXT
  5
34C
330
34A
100
AcDbEntity
  8
256
  6
Continuous
 62
    18
370
    13
100
AcDbMText
 10
92.123591
 20
148.473752
 30
0.0
 40
3.5
 41
0.0
 71
     7
 72
     5
  1
%%c
  7
blockfont
 11
0.9917616233481606
 21
-0.1280971602098236
 31
0.0
 73
     2
 44
0.903614
  0
LINE
  5
34D
330
34A
100
AcDbEntity
  8
256
 62
    18
370
    13
100
AcDbLine
 10
70.356911
 20
149.777954
 30
0.0
 11
106.201857
 21
145.148177
 31
0.0
  0
SOLID
  5
34E
330
34A
100
AcDbEntity
  8
0
 62
    18
370
    18
100
AcDbTrace
 10
70.356911
 20
149.777954
 30
0.0
 11
73.948205
 21
150.259711
 31
0.0
 12
73.707948
 22
148.399518
 32
0.0
 13
70.356911
 23
149.777954
 33
0.0
  0
ENDBLK
  5
350
330
34A
100
AcDbEntity
  8
0
100
AcDbBlockEnd
  0
BLOCK
  5
355
330
354
100
AcDbEntity
  8
0
100
AcDbBlockBegin
  2
*D5
 70
     1
 10
0.0
 20
0.0
 30
0.0
  3
*D5
  1
*D5
  0
LINE
  5
357
330
354
100
AcDbEntity
  8
0
 62
    18
370
    -2
100
AcDbLine
 10
47.908401
 20
175.578562
 30
0.0
 11
25.191315
 21
175.578562
 31
0.0
  0
LINE
  5
358
330
354
100
AcDbEntity
  8
0
 62
    18
370
    -2
100
AcDbLine
 10
47.908401
 20
125.578562
 30
0.0
 11
25.191315
 21
125.578562
 31
0.0
  0
LINE
  5
359
330
354
100
AcDbEntity
  8
0
 62
    18
370
    -2
100
AcDbLine
 10
27.191315
 20
172.078562
 30
0.0
 11
27.191315
 21
129.078562
 31
0.0
  0
SOLID
  5
35A
330
354
100
AcDbEntity
  8
0
 62
    18
100
AcDbTrace
 10
27.774649
 20
172.078562
 30
0.0
 11
26.607982
 21
172.078562
 31
0.0
 12
27.191315
 22
175.578562
 32
0.0
 13
27.191315
 23
175.578562
 33
0.0
  0
SOLID
  5
35B
330
354
100
AcDbEntity
  8
0
 62
    18
100
AcDbTrace
 10
26.607982
 20
129.078562
 30
0.0
 11
27.774649
 21
129.078562
 31
0.0
 12
27.191315
 22
125.578562
 32
0.0
 13
27.191315
 23
125.578562
 33
0.0
  0
MTEXT
  5
35C
330
354
100
AcDbEntity
  8
0
 62
    18
370
    18
100
AcDbMText
 10
20.191315
 20
147.320853
 30
0.0
 40
3.5
 41
0.0
 71
     5
 72
     1
  1
\A1;50
  7
blockfont
 11
7.105427357601002E-17
 21
1.0
 31
0.0
 73
     1
 44
1.0
  0
POINT
  5
35D
330
354
100
AcDbEntity
  8
Defpoints
 62
     0
100
AcDbPoint
 10
47.908401
 20
175.578562
 30
0.0
  0
POINT
  5
35E
330
354
100
AcDbEntity
  8
Defpoints
 62
     0
100
AcDbPoint
 10
47.908401
 20
125.578562
 30
0.0
  0
POINT
  5
35F
330
354
100
AcDbEntity
  8
Defpoints
 62
     0
100
AcDbPoint
 10
27.191315
 20
125.578562
 30
0.0
  0
ENDBLK
  5
356
330
354
100
AcDbEntity
  8
0
100
AcDbBlockEnd
  0
BLOCK
  5
367
330
360
100
AcDbEntity
  8
0
100
AcDbBlockBegin
  2
_U2
 70
     0
 10
0.0
 20
0.0
 30
0.0
  3
_U2
  1
_U2
  0
MTEXT
  5
361
330
360
100
AcDbEntity
  8
256
  6
Continuous
 62
    18
370
    13
100
AcDbMText
 10
26.571524
 20
144.907311
 30
0.0
 40
3.5
 41
0.0
 71
     7
 72
     5
  1
\W1.1121;10
  7
blockfont
 11
6.123233995736766E-17
 21
1.0
 31
0.0
 73
     2
 44
0.903614
  0
LINE
  5
362
330
360
100
AcDbEntity
  8
256
 62
    18
370
    13
100
AcDbLine
 10
47.908401
 20
175.578562
 30
0.0
 11
25.191315
 21
175.578562
 31
0.0
  0
LINE
  5
363
330
360
100
AcDbEntity
  8
256
 62
    18
370
    13
100
AcDbLine
 10
47.907401
 20
125.578562
 30
0.0
 11
25.191315
 21
125.578562
 31
0.0
  0
LINE
  5
364
330
360
100
AcDbEntity
  8
256
 62
    18
370
    13
100
AcDbLine
 10
27.191315
 20
175.578562
 30
0.0
 11
27.191315
 21
125.578562
 31
0.0
  0
SOLID
  5
365
330
360
100
AcDbEntity
  8
0
 62
    18
370
    18
100
AcDbTrace
 10
27.191315
 20
175.578562
 30
0.0
 11
28.129137
 21
172.078565
 31
0.0
 12
26.253493
 22
172.078558
 32
0.0
 13
27.191315
 23
175.578562
 33
0.0
  0
SOLID
  5
366
330
360
100
AcDbEntity
  8
0
 62
    18
370
    18
100
AcDbTrace
 10
27.191315
 20
125.578562
 30
0.0
 11
26.253493
 21
129.078558
 31
0.0
 12
28.129137
 22
129.078565
 32
0.0
 13
27.191315
 23
125.578562
 33
0.0
  0
ENDBLK
  5
368
330
360
100
AcDbEntity
  8
0
100
AcDbBlockEnd
  0
BLOCK
  5
371
330
369
100
AcDbEntity
  8
0
100
AcDbBlockBegin
  2
_U3
 70
     0
 10
0.0
 20
0.0
 30
0.0
  3
_U3
  1
_U3
  0
MTEXT
  5
36A
330
369
100
AcDbEntity
  8
256
  6
Continuous
 62
    18
370
    13
100
AcDbMText
 10
114.096053
 20
162.119205
 30
0.0
 40
3.5
 41
0.0
 71
     7
 72
     5
  1
\W1.2220;3,5
  7
blockfont
 11
6.123233995736766E-17
 21
1.0
 31
0.0
 73
     2
 44
0.903614
  0
LINE
  5
36B
330
369
100
AcDbEntity
  8
256
 62
    18
370
    13
100
AcDbLine
 10
88.158401
 20
158.078562
 30
0.0
 11
116.715845
 21
158.078562
 31
0.0
  0
LINE
  5
36C
330
369
100
AcDbEntity
  8
256
 62
    18
370
    13
100
AcDbLine
 10
83.301347
 20
175.578562
 30
0.0
 11
116.715845
 21
175.578562
 31
0.0
  0
LINE
  5
36D
330
369
100
AcDbEntity
  8
256
 62
    18
370
    13
100
AcDbLine
 10
114.715845
 20
158.078562
 30
0.0
 11
114.715845
 21
175.578562
 31
0.0
  0
SOLID
  5
36E
330
369
100
AcDbEntity
  8
0
 62
    18
370
    18
100
AcDbTrace
 10
114.715845
 20
158.078562
 30
0.0
 11
113.778022
 21
161.578558
 31
0.0
 12
115.653667
 22
161.578565
 32
0.0
 13
114.715845
 23
158.078562
 33
0.0
  0
SOLID
  5
36F
330
369
100
AcDbEntity
  8
0
 62
    18
370
    18
100
AcDbTrace
 10
114.715845
 20
175.578562
 30
0.0
 11
115.653667
 21
172.078565
 31
0.0
 12
113.778022
 22
172.078558
 32
0.0
 13
114.715845
 23
175.578562
 33
0.0
  0
ENDBLK
  5
372
330
369
100
AcDbEntity
  8
0
100
AcDbBlockEnd
  0
BLOCK
  5
37B
330
373
100
AcDbEntity
  8
0
100
AcDbBlockBegin
  2
_U4
 70
     0
 10
0.0
 20
0.0
 30
0.0
  3
_U4
  1
_U4
  0
MTEXT
  5
374
330
373
100
AcDbEntity
  8
256
  6
Continuous
 62
    18
370
    13
100
AcDbMText
 10
59.801952
 20
108.478463
 30
0.0
 40
3.5
 41
0.0
 71
     7
 72
     5
  1
\W1.1682;1
  7
blockfont
 11
6.123233995736766E-17
 21
1.0
 31
0.0
 73
     2
 44
0.903614
  0
LINE
  5
375
330
373
100
AcDbEntity
  8
256
 62
    18
370
    13
100
AcDbLine
 10
52.883957
 20
130.578562
 30
0.0
 11
62.421744
 21
130.578562
 31
0.0
  0
LINE
  5
376
330
373
100
AcDbEntity
  8
256
 62
    18
370
    13
100
AcDbLine
 10
54.405262
 20
125.578562
 30
0.0
 11
62.421744
 21
125.578562
 31
0.0
  0
LINE
  5
377
330
373
100
AcDbEntity
  8
256
 62
    18
370
    13
100
AcDbLine
 10
60.421744
 20
107.603463
 30
0.0
 11
60.421744
 21
139.328562
 31
0.0
  0
SOLID
  5
378
330
373
100
AcDbEntity
  8
0
 62
    18
370
    18
100
AcDbTrace
 10
60.421744
 20
130.578562
 30
0.0
 11
59.483922
 21
134.078558
 31
0.0
 12
61.359566
 22
134.078565
 32
0.0
 13
60.421744
 23
130.578562
 33
0.0
  0
SOLID
  5
379
330
373
100
AcDbEntity
  8
0
 62
    18
370
    18
100
AcDbTrace
 10
60.421744
 20
125.578562
 30
0.0
 11
61.359566
 21
122.078565
 31
0.0
 12
59.483922
 22
122.078558
 32
0.0
 13
60.421744
 23
125.578562
 33
0.0
  0
ENDBLK
  5
37C
330
373
100
AcDbEntity
  8
0
100
AcDbBlockEnd
  0
BLOCK
  5
381
330
380
100
AcDbEntity
  8
0
100
AcDbBlockBegin
  2
*D9
 70
     1
 10
0.0
 20
0.0
 30
0.0
  3
*D9
  1
*D9
  0
LINE
  5
383
330
380
100
AcDbEntity
  8
0
 62
    18
370
    -2
100
AcDbLine
 10
74.158401
 20
145.578562
 30
0.0
 11
74.158401
 21
106.574994
 31
0.0
  0
LINE
  5
384
330
380
100
AcDbEntity
  8
0
 62
    18
370
    -2
100
AcDbLine
 10
89.158401
 20
134.328562
 30
0.0
 11
89.158401
 21
106.574994
 31
0.0
  0
LINE
  5
385
330
380
100
AcDbEntity
  8
0
 62
    18
370
    -2
100
AcDbLine
 10
70.658401
 20
108.574994
 30
0.0
 11
67.158401
 21
108.574994
 31
0.0
  0
LINE
  5
386
330
380
100
AcDbEntity
  8
0
 62
    18
370
    -2
100
AcDbLine
 10
92.658401
 20
108.574994
 30
0.0
 11
96.158401
 21
108.574994
 31
0.0
  0
SOLID
  5
387
330
380
100
AcDbEntity
  8
0
 62
    18
100
AcDbTrace
 10
70.658401
 20
107.991661
 30
0.0
 11
70.658401
 21
109.158328
 31
0.0
 12
74.158401
 22
108.574994
 32
0.0
 13
74.158401
 23
108.574994
 33
0.0
  0
SOLID
  5
388
330
380
100
AcDbEntity
  8
0
 62
    18
100
AcDbTrace
 10
92.658401
 20
109.158328
 30
0.0
 11
92.658401
 21
107.991661
 31
0.0
 12
89.158401
 22
108.574994
 32
0.0
 13
89.158401
 23
108.574994
 33
0.0
  0
MTEXT
  5
389
330
380
100
AcDbEntity
  8
0
 62
    18
370
    18
100
AcDbMText
 10
81.741691
 20
115.574994
 30
0.0
 40
3.5
 41
0.0
 71
     5
 72
     1
  1
\A1;15
  7
blockfont
 73
     1
 44
1.0
  0
POINT
  5
38A
330
380
100
AcDbEntity
  8
Defpoints
 62
     0
100
AcDbPoint
 10
74.158401
 20
145.578562
 30
0.0
  0
POINT
  5
38B
330
380
100
AcDbEntity
  8
Defpoints
 62
     0
100
AcDbPoint
 10
89.158401
 20
134.328562
 30
0.0
  0
POINT
  5
38C
330
380
100
AcDbEntity
  8
Defpoints
 62
     0
100
AcDbPoint
 10
89.158401
 20
108.574994
 30
0.0
  0
ENDBLK
  5
382
330
380
100
AcDbEntity
  8
0
100
AcDbBlockEnd
  0
BLOCK
  5
394
330
38D
100
AcDbEntity
  8
0
100
AcDbBlockBegin
  2
_U5
 70
     0
 10
0.0
 20
0.0
 30
0.0
  3
_U5
  1
_U5
  0
MTEXT
  5
38E
330
38D
100
AcDbEntity
  8
256
  6
Continuous
 62
    18
370
    13
100
AcDbMText
 10
81.05992
 20
109.194786
 30
0.0
 40
3.5
 41
0.0
 71
     7
 72
     5
  1
\W0.9338;3
  7
blockfont
 73
     2
 44
0.903614
  0
LINE
  5
38F
330
38D
100
AcDbEntity
  8
256
 62
    18
370
    13
100
AcDbLine
 10
74.158401
 20
145.578562
 30
0.0
 11
74.158401
 21
106.574994
 31
0.0
  0
LINE
  5
390
330
38D
100
AcDbEntity
  8
256
 62
    18
370
    13
100
AcDbLine
 10
89.158401
 20
134.327562
 30
0.0
 11
89.158401
 21
106.574994
 31
0.0
  0
LINE
  5
391
330
38D
100
AcDbEntity
  8
256
 62
    18
370
    13
100
AcDbLine
 10
74.158401
 20
108.574994
 30
0.0
 11
89.158401
 21
108.574994
 31
0.0
  0
SOLID
  5
392
330
38D
100
AcDbEntity
  8
0
 62
    18
370
    18
100
AcDbTrace
 10
74.158401
 20
108.574994
 30
0.0
 11
77.658397
 21
109.512817
 31
0.0
 12
77.658404
 22
107.637172
 32
0.0
 13
74.158401
 23
108.574994
 33
0.0
  0
SOLID
  5
393
330
38D
100
AcDbEntity
  8
0
 62
    18
370
    18
100
AcDbTrace
 10
89.158401
 20
108.574994
 30
0.0
 11
85.658404
 21
107.637172
 31
0.0
 12
85.658397
 22
109.512817
 32
0.0
 13
89.158401
 23
108.574994
 33
0.0
  0
ENDBLK
  5
395
330
38D
100
AcDbEntity
  8
0
100
AcDbBlockEnd
  0
BLOCK
  5
39A
330
399
100
AcDbEntity
  8
0
100
AcDbBlockBegin
  2
*D11
 70
     1
 10
0.0
 20
0.0
 30
0.0
  3
*D11
  1
*D11
  0
LINE
  5
39C
330
399
100
AcDbEntity
  8
0
 62
    18
370
    -2
100
AcDbLine
 10
59.158401
 20
160.578562
 30
0.0
 11
59.158401
 21
188.08243
 31
0.0
  0
LINE
  5
39D
330
399
100
AcDbEntity
  8
0
 62
    18
370
    -2
100
AcDbLine
 10
69.158401
 20
160.578562
 30
0.0
 11
69.158401
 21
188.08243
 31
0.0
  0
LINE
  5
39E
330
399
100
AcDbEntity
  8
0
 62
    18
370
    -2
100
AcDbLine
 10
55.658401
 20
186.08243
 30
0.0
 11
52.158401
 21
186.08243
 31
0.0
  0
LINE
  5
39F
330
399
100
AcDbEntity
  8
0
 62
    18
370
    -2
100
AcDbLine
 10
72.658401
 20
186.08243
 30
0.0
 11
76.158401
 21
186.08243
 31
0.0
  0
SOLID
  5
3A0
330
399
100
AcDbEntity
  8
0
 62
    18
100
AcDbTrace
 10
55.658401
 20
185.499097
 30
0.0
 11
55.658401
 21
186.665763
 31
0.0
 12
59.158401
 22
186.08243
 32
0.0
 13
59.158401
 23
186.08243
 33
0.0
  0
SOLID
  5
3A1
330
399
100
AcDbEntity
  8
0
 62
    18
100
AcDbTrace
 10
72.658401
 20
186.665763
 30
0.0
 11
72.658401
 21
185.499097
 31
0.0
 12
69.158401
 22
186.08243
 32
0.0
 13
69.158401
 23
186.08243
 33
0.0
  0
MTEXT
  5
3A2
330
399
100
AcDbEntity
  8
0
 62
    18
370
    18
100
AcDbMText
 10
64.265022
 20
193.08243
 30
0.0
 40
3.5
 41
0.0
 71
     5
 72
     1
  1
\A1;10
  7
blockfont
 73
     1
 44
1.0
  0
POINT
  5
3A3
330
399
100
AcDbEntity
  8
Defpoints
 62
     0
100
AcDbPoint
 10
59.158401
 20
160.578562
 30
0.0
  0
POINT
  5
3A4
330
399
100
AcDbEntity
  8
Defpoints
 62
     0
100
AcDbPoint
 10
69.158401
 20
160.578562
 30
0.0
  0
POINT
  5
3A5
330
399
100
AcDbEntity
  8
Defpoints
 62
     0
100
AcDbPoint
 10
69.158401
 20
186.08243
 30
0.0
  0
ENDBLK
  5
39B
330
399
100
AcDbEntity
  8
0
100
AcDbBlockEnd
  0
BLOCK
  5
3AD
330
3A6
100
AcDbEntity
  8
0
100
AcDbBlockBegin
  2
_U6
 70
     0
 10
0.0
 20
0.0
 30
0.0
  3
_U6
  1
_U6
  0
MTEXT
  5
3A7
330
3A6
100
AcDbEntity
  8
256
  6
Continuous
 62
    18
370
    13
100
AcDbMText
 10
63.583251
 20
186.702222
 30
0.0
 40
3.5
 41
0.0
 71
     7
 72
     5
  1
\W0.9338;2
  7
blockfont
 73
     2
 44
0.903614
  0
LINE
  5
3A8
330
3A6
100
AcDbEntity
  8
256
 62
    18
370
    13
100
AcDbLine
 10
59.158401
 20
160.578562
 30
0.0
 11
59.158401
 21
188.08243
 31
0.0
  0
LINE
  5
3A9
330
3A6
100
AcDbEntity
  8
256
 62
    18
370
    13
100
AcDbLine
 10
69.158401
 20
160.578562
 30
0.0
 11
69.158401
 21
188.08243
 31
0.0
  0
LINE
  5
3AA
330
3A6
100
AcDbEntity
  8
256
 62
    18
370
    13
100
AcDbLine
 10
59.158401
 20
186.08243
 30
0.0
 11
69.158401
 21
186.08243
 31
0.0
  0
SOLID
  5
3AB
330
3A6
100
AcDbEntity
  8
0
 62
    18
370
    18
100
AcDbTrace
 10
59.158401
 20
186.08243
 30
0.0
 11
62.658397
 21
187.020252
 31
0.0
 12
62.658404
 22
185.144608
 32
0.0
 13
59.158401
 23
186.08243
 33
0.0
  0
SOLID
  5
3AC
330
3A6
100
AcDbEntity
  8
0
 62
    18
370
    18
100
AcDbTrace
 10
69.158401
 20
186.08243
 30
0.0
 11
65.658404
 21
185.144608
 31
0.0
 12
65.658397
 22
187.020252
 32
0.0
 13
69.158401
 23
186.08243
 33
0.0
  0
ENDBLK
  5
3AE
330
3A6
100
AcDbEntity
  8
0
100
AcDbBlockEnd
  0
BLOCK
  5
3CD
330
3AF
100
AcDbEntity
  8
0
100
AcDbBlockBegin
  2
TabularNote1
 70
     0
 10
0.0
 20
0.0
 30
0.0
  3
TabularNote1
  1
TabularNote1
  0
LINE
  5
3B0
330
3AF
100
AcDbEntity
  8
256
  6
Continuous
 62
   163
370
    18
100
AcDbLine
 10
121.306313
 20
101.808999
 30
0.0
 11
162.306313
 21
101.808999
 31
0.0
  0
LINE
  5
3B1
330
3AF
100
AcDbEntity
  8
256
  6
Continuous
 62
   163
370
    18
100
AcDbLine
 10
121.306313
 20
101.808999
 30
0.0
 11
121.306313
 21
94.808999
 31
0.0
  0
LINE
  5
3B2
330
3AF
100
AcDbEntity
  8
256
  6
Continuous
 62
   163
370
    18
100
AcDbLine
 10
121.306313
 20
94.808999
 30
0.0
 11
162.306313
 21
94.808999
 31
0.0
  0
MTEXT
  5
3B3
330
3AF
100
AcDbEntity
  8
256
  6
Continuous
 62
    18
370
    13
100
AcDbMText
 10
123.081313
 20
98.308999
 30
0.0
 40
3.5
 41
0.0
 71
     4
 72
     5
  1
\W1.2913;Section properties
  7
blockfont
 73
     2
 44
0.903614
  0
LINE
  5
3B4
330
3AF
100
AcDbEntity
  8
256
  6
Continuous
 62
   163
370
    18
100
AcDbLine
 10
162.306313
 20
101.808999
 30
0.0
 11
196.306313
 21
101.808999
 31
0.0
  0
LINE
  5
3B5
330
3AF
100
AcDbEntity
  8
256
  6
Continuous
 62
   163
370
    18
100
AcDbLine
 10
162.306313
 20
94.808999
 30
0.0
 11
196.306313
 21
94.808999
 31
0.0
  0
LINE
  5
3B6
330
3AF
100
AcDbEntity
  8
256
  6
Continuous
 62
   163
370
    18
100
AcDbLine
 10
196.306313
 20
101.808999
 30
0.0
 11
196.306313
 21
94.808999
 31
0.0
  0
LINE
  5
3B7
330
3AF
100
AcDbEntity
  8
256
  6
Continuous
 62
   163
370
    18
100
AcDbLine
 10
121.306313
 20
94.808999
 30
0.0
 11
121.306313
 21
87.808999
 31
0.0
  0
LINE
  5
3B8
330
3AF
100
AcDbEntity
  8
256
  6
Continuous
 62
   163
370
    18
100
AcDbLine
 10
121.306313
 20
87.808999
 30
0.0
 11
162.306313
 21
87.808999
 31
0.0
  0
LINE
  5
3B9
330
3AF
100
AcDbEntity
  8
256
  6
Continuous
 62
   163
370
    18
100
AcDbLine
 10
162.306313
 20
94.808999
 30
0.0
 11
162.306313
 21
87.808999
 31
0.0
  0
MTEXT
  5
3BA
330
3AF
100
AcDbEntity
  8
256
  6
Continuous
 62
    18
370
    13
100
AcDbMText
 10
123.081313
 20
91.308999
 30
0.0
 40
3.5
 41
0.0
 71
     4
 72
     5
  1
\W1.1402;Area
  7
blockfont
 73
     2
 44
0.903614
  0
LINE
  5
3BB
330
3AF
100
AcDbEntity
  8
256
  6
Continuous
 62
   163
370
    18
100
AcDbLine
 10
162.306313
 20
87.808999
 30
0.0
 11
196.306313
 21
87.808999
 31
0.0
  0
LINE
  5
3BC
330
3AF
100
AcDbEntity
  8
256
  6
Continuous
 62
   163
370
    18
100
AcDbLine
 10
196.306313
 20
94.808999
 30
0.0
 11
196.306313
 21
87.808999
 31
0.0
  0
MTEXT
  5
3BD
330
3AF
100
AcDbEntity
  8
256
  6
Continuous
 62
    18
370
    13
100
AcDbMText
 10
164.065066
 20
91.308999
 30
0.0
 40
3.5
 41
0.0
 71
     4
 72
     5
  1
\W1.0060;48.16 mm2
  7
blockfont
 73
     2
 44
0.903614
  0
LINE
  5
3BE
330
3AF
100
AcDbEntity
  8
256
  6
Continuous
 62
   163
370
    18
100
AcDbLine
 10
121.306313
 20
87.808999
 30
0.0
 11
121.306313
 21
75.558999
 31
0.0
  0
LINE
  5
3BF
330
3AF
100
AcDbEntity
  8
256
  6
Continuous
 62
   163
370
    18
100
AcDbLine
 10
121.306313
 20
75.558999
 30
0.0
 11
162.306313
 21
75.558999
 31
0.0
  0
LINE
  5
3C0
330
3AF
100
AcDbEntity
  8
256
  6
Continuous
 62
   163
370
    18
100
AcDbLine
 10
162.306313
 20
87.808999
 30
0.0
 11
162.306313
 21
75.558999
 31
0.0
  0
MTEXT
  5
3C1
330
3AF
100
AcDbEntity
  8
256
  6
Continuous
 62
    18
370
    13
100
AcDbMText
 10
123.081313
 20
81.683999
 30
0.0
 40
3.5
 41
0.0
 71
     4
 72
     5
  1
\W1.0795;Moment of\PInertia
  7
blockfont
 73
     1
 44
0.903614
  0
LINE
  5
3C2
330
3AF
100
AcDbEntity
  8
256
  6
Continuous
 62
   163
370
    18
100
AcDbLine
 10
162.306313
 20
75.558999
 30
0.0
 11
196.306313
 21
75.558999
 31
0.0
  0
LINE
  5
3C3
330
3AF
100
AcDbEntity
  8
256
  6
Continuous
 62
   163
370
    18
100
AcDbLine
 10
196.306313
 20
87.808999
 30
0.0
 11
196.306313
 21
75.558999
 31
0.0
  0
MTEXT
  5
3C4
330
3AF
100
AcDbEntity
  8
256
  6
Continuous
 62
    18
370
    13
100
AcDbMText
 10
164.065066
 20
81.683999
 30
0.0
 40
3.5
 41
0.0
 71
     4
 72
     5
  1
\W1.0226;491.18mm^ \P4
  7
blockfont
 73
     1
 44
0.903614
  0
LINE
  5
3C5
330
3AF
100
AcDbEntity
  8
256
  6
Continuous
 62
   163
370
    18
100
AcDbLine
 10
121.306313
 20
75.558999
 30
0.0
 11
121.306313
 21
58.058999
 31
0.0
  0
LINE
  5
3C6
330
3AF
100
AcDbEntity
  8
256
  6
Continuous
 62
   163
370
    18
100
AcDbLine
 10
121.306313
 20
58.058999
 30
0.0
 11
162.306313
 21
58.058999
 31
0.0
  0
LINE
  5
3C7
330
3AF
100
AcDbEntity
  8
256
  6
Continuous
 62
   163
370
    18
100
AcDbLine
 10
162.306313
 20
75.558999
 30
0.0
 11
162.306313
 21
58.058999
 31
0.0
  0
MTEXT
  5
3C8
330
3AF
100
AcDbEntity
  8
256
  6
Continuous
 62
    18
370
    13
100
AcDbMText
 10
123.081313
 20
66.808999
 30
0.0
 40
3.5
 41
0.0
 71
     4
 72
     5
  1
\W1.2941;Polar\Pmoment\Pof Inertia
  7
blockfont
 73
     1
 44
0.903614
  0
LINE
  5
3C9
330
3AF
100
AcDbEntity
  8
256
  6
Continuous
 62
   163
370
    18
100
AcDbLine
 10
162.306313
 20
58.058999
 30
0.0
 11
196.306313
 21
58.058999
 31
0.0
  0
LINE
  5
3CA
330
3AF
100
AcDbEntity
  8
256
  6
Continuous
 62
   163
370
    18
100
AcDbLine
 10
196.306313
 20
75.558999
 30
0.0
 11
196.306313
 21
58.058999
 31
0.0
  0
MTEXT
  5
3CB
330
3AF
100
AcDbEntity
  8
256
  6
Continuous
 62
    18
370
    13
100
AcDbMText
 10
164.081313
 20
66.808999
 30
0.0
 40
3.5
 41
0.0
 71
     4
 72
     5
  1
\W1.1315;982.37\Pmm^ 4
  7
blockfont
 73
     1
 44
0.903614
  0
ENDBLK
  5
3CE
330
3AF
100
AcDbEntity
  8
0
100
AcDbBlockEnd
  0
BLOCK
  5
3FA
330
3CF
100
AcDbEntity
  8
0
100
AcDbBlockBegin
  2
TabularNote2
 70
     0
 10
0.0
 20
0.0
 30
0.0
  3
TabularNote2
  1
TabularNote2
  0
LINE
  5
3D0
330
3CF
100
AcDbEntity
  8
1
  6
Continuous
 62
    18
370
    18
100
AcDbLine
 10
10.0
 20
58.0
 30
0.0
 11
45.0
 21
58.0
 31
0.0
  0
LINE
  5
3D1
330
3CF
100
AcDbEntity
  8
1
  6
Continuous
 62
    18
370
    18
100
AcDbLine
 10
10.0
 20
58.0
 30
0.0
 11
10.0
 21
40.0
 31
0.0
  0
LINE
  5
3D2
330
3CF
100
AcDbEntity
  8
1
  6
Continuous
 62
    18
370
    18
100
AcDbLine
 10
10.0
 20
40.0
 30
0.0
 11
45.0
 21
40.0
 31
0.0
  0
LINE
  5
3D3
330
3CF
100
AcDbEntity
  8
1
  6
Continuous
 62
    18
370
    18
100
AcDbLine
 10
45.0
 20
58.0
 30
0.0
 11
75.0
 21
58.0
 31
0.0
  0
LINE
  5
3D4
330
3CF
100
AcDbEntity
  8
1
  6
Continuous
 62
    18
370
    18
100
AcDbLine
 10
45.0
 20
40.0
 30
0.0
 11
75.0
 21
40.0
 31
0.0
  0
LINE
  5
3D5
330
3CF
100
AcDbEntity
  8
1
  6
Continuous
 62
    18
370
    18
100
AcDbLine
 10
75.0
 20
58.0
 30
0.0
 11
75.0
 21
40.0
 31
0.0
  0
LINE
  5
3D6
330
3CF
100
AcDbEntity
  8
1
  6
Continuous
 62
    18
370
    18
100
AcDbLine
 10
10.0
 20
40.0
 30
0.0
 11
10.0
 21
34.0
 31
0.0
  0
LINE
  5
3D7
330
3CF
100
AcDbEntity
  8
1
  6
Continuous
 62
    18
370
    18
100
AcDbLine
 10
10.0
 20
34.0
 30
0.0
 11
45.0
 21
34.0
 31
0.0
  0
LINE
  5
3D8
330
3CF
100
AcDbEntity
  8
1
  6
Continuous
 62
    18
370
    18
100
AcDbLine
 10
45.0
 20
40.0
 30
0.0
 11
45.0
 21
34.0
 31
0.0
  0
MTEXT
  5
3D9
330
3CF
100
AcDbEntity
  8
256
  6
Continuous
 62
    18
370
    13
100
AcDbMText
 10
27.5
 20
37.0
 30
0.0
 40
2.0
 41
0.0
 71
     5
 72
     5
  1
\W1.1402;Date
  7
blockfont
 73
     2
 44
0.903614
  0
LINE
  5
3DA
330
3CF
100
AcDbEntity
  8
1
  6
Continuous
 62
    18
370
    18
100
AcDbLine
 10
45.0
 20
34.0
 30
0.0
 11
75.0
 21
34.0
 31
0.0
  0
LINE
  5
3DB
330
3CF
100
AcDbEntity
  8
1
  6
Continuous
 62
    18
370
    18
100
AcDbLine
 10
75.0
 20
40.0
 30
0.0
 11
75.0
 21
34.0
 31
0.0
  0
MTEXT
  5
3DC
330
3CF
100
AcDbEntity
  8
256
  6
Continuous
 62
    18
370
    13
100
AcDbMText
 10
60.0
 20
37.0
 30
0.0
 40
2.0
 41
0.0
 71
     5
 72
     5
  1
\W1.0036;27-05-2014
  7
blockfont
 73
     2
 44
0.903614
  0
LINE
  5
3DD
330
3CF
100
AcDbEntity
  8
1
  6
Continuous
 62
    18
370
    18
100
AcDbLine
 10
10.0
 20
34.0
 30
0.0
 11
10.0
 21
28.0
 31
0.0
  0
LINE
  5
3DE
330
3CF
100
AcDbEntity
  8
1
  6
Continuous
 62
    18
370
    18
100
AcDbLine
 10
10.0
 20
28.0
 30
0.0
 11
45.0
 21
28.0
 31
0.0
  0
LINE
  5
3DF
330
3CF
100
AcDbEntity
  8
1
  6
Continuous
 62
    18
370
    18
100
AcDbLine
 10
45.0
 20
34.0
 30
0.0
 11
45.0
 21
28.0
 31
0.0
  0
MTEXT
  5
3E0
330
3CF
100
AcDbEntity
  8
256
  6
Continuous
 62
    18
370
    13
100
AcDbMText
 10
27.5
 20
31.0
 30
0.0
 40
2.0
 41
0.0
 71
     5
 72
     5
  1
\W1.3253;Revision
  7
blockfont
 73
     2
 44
0.903614
  0
LINE
  5
3E1
330
3CF
100
AcDbEntity
  8
1
  6
Continuous
 62
    18
370
    18
100
AcDbLine
 10
45.0
 20
28.0
 30
0.0
 11
75.0
 21
28.0
 31
0.0
  0
LINE
  5
3E2
330
3CF
100
AcDbEntity
  8
1
  6
Continuous
 62
    18
370
    18
100
AcDbLine
 10
75.0
 20
34.0
 30
0.0
 11
75.0
 21
28.0
 31
0.0
  0
MTEXT
  5
3E3
330
3CF
100
AcDbEntity
  8
256
  6
Continuous
 62
    18
370
    13
100
AcDbMText
 10
60.0
 20
31.0
 30
0.0
 40
2.0
 41
0.0
 71
     5
 72
     5
  1
\W1.1682;1
  7
blockfont
 73
     2
 44
0.903614
  0
LINE
  5
3E4
330
3CF
100
AcDbEntity
  8
1
  6
Continuous
 62
    18
370
    18
100
AcDbLine
 10
10.0
 20
28.0
 30
0.0
 11
10.0
 21
22.0
 31
0.0
  0
LINE
  5
3E5
330
3CF
100
AcDbEntity
  8
1
  6
Continuous
 62
    18
370
    18
100
AcDbLine
 10
10.0
 20
22.0
 30
0.0
 11
45.0
 21
22.0
 31
0.0
  0
LINE
  5
3E6
330
3CF
100
AcDbEntity
  8
1
  6
Continuous
 62
    18
370
    18
100
AcDbLine
 10
45.0
 20
28.0
 30
0.0
 11
45.0
 21
22.0
 31
0.0
  0
MTEXT
  5
3E7
330
3CF
100
AcDbEntity
  8
256
  6
Continuous
 62
    18
370
    13
100
AcDbMText
 10
27.5
 20
25.0
 30
0.0
 40
2.0
 41
0.0
 71
     5
 72
     5
  1
\W1.2468;Scale
  7
blockfont
 73
     2
 44
0.903614
  0
LINE
  5
3E8
330
3CF
100
AcDbEntity
  8
1
  6
Continuous
 62
    18
370
    18
100
AcDbLine
 10
45.0
 20
22.0
 30
0.0
 11
75.0
 21
22.0
 31
0.0
  0
LINE
  5
3E9
330
3CF
100
AcDbEntity
  8
1
  6
Continuous
 62
    18
370
    18
100
AcDbLine
 10
75.0
 20
28.0
 30
0.0
 11
75.0
 21
22.0
 31
0.0
  0
MTEXT
  5
3EA
330
3CF
100
AcDbEntity
  8
256
  6
Continuous
 62
    18
370
    13
100
AcDbMText
 10
60.0
 20
25.0
 30
0.0
 40
2.0
 41
0.0
 71
     5
 72
     5
  1
\W1.3003;1:1
  7
blockfont
 73
     2
 44
0.903614
  0
LINE
  5
3EB
330
3CF
100
AcDbEntity
  8
1
  6
Continuous
 62
    18
370
    18
100
AcDbLine
 10
10.0
 20
22.0
 30
0.0
 11
10.0
 21
16.0
 31
0.0
  0
LINE
  5
3EC
330
3CF
100
AcDbEntity
  8
1
  6
Continuous
 62
    18
370
    18
100
AcDbLine
 10
10.0
 20
16.0
 30
0.0
 11
45.0
 21
16.0
 31
0.0
  0
LINE
  5
3ED
330
3CF
100
AcDbEntity
  8
1
  6
Continuous
 62
    18
370
    18
100
AcDbLine
 10
45.0
 20
22.0
 30
0.0
 11
45.0
 21
16.0
 31
0.0
  0
MTEXT
  5
3EE
330
3CF
100
AcDbEntity
  8
256
  6
Continuous
 62
    18
370
    13
100
AcDbMText
 10
27.5
 20
19.0
 30
0.0
 40
2.0
 41
0.0
 71
     5
 72
     5
  1
\W1.2271;Dimensions in
  7
blockfont
 73
     2
 44
0.903614
  0
LINE
  5
3EF
330
3CF
100
AcDbEntity
  8
1
  6
Continuous
 62
    18
370
    18
100
AcDbLine
 10
45.0
 20
16.0
 30
0.0
 11
75.0
 21
16.0
 31
0.0
  0
LINE
  5
3F0
330
3CF
100
AcDbEntity
  8
1
  6
Continuous
 62
    18
370
    18
100
AcDbLine
 10
75.0
 20
22.0
 30
0.0
 11
75.0
 21
16.0
 31
0.0
  0
MTEXT
  5
3F1
330
3CF
100
AcDbEntity
  8
256
  6
Continuous
 62
    18
370
    13
100
AcDbMText
 10
60.0
 20
19.0
 30
0.0
 40
2.0
 41
0.0
 71
     5
 72
     5
  1
\W0.6663;mm
  7
blockfont
 73
     2
 44
0.903614
  0
LINE
  5
3F2
330
3CF
100
AcDbEntity
  8
1
  6
Continuous
 62
    18
370
    18
100
AcDbLine
 10
10.0
 20
16.0
 30
0.0
 11
10.0
 21
10.0
 31
0.0
  0
LINE
  5
3F3
330
3CF
100
AcDbEntity
  8
1
  6
Continuous
 62
    18
370
    18
100
AcDbLine
 10
10.0
 20
10.0
 30
0.0
 11
45.0
 21
10.0
 31
0.0
  0
LINE
  5
3F4
330
3CF
100
AcDbEntity
  8
1
  6
Continuous
 62
    18
370
    18
100
AcDbLine
 10
45.0
 20
16.0
 30
0.0
 11
45.0
 21
10.0
 31
0.0
  0
MTEXT
  5
3F5
330
3CF
100
AcDbEntity
  8
256
  6
Continuous
 62
    18
370
    13
100
AcDbMText
 10
27.5
 20
13.0
 30
0.0
 40
2.0
 41
0.0
 71
     5
 72
     5
  1
\W1.2533;Papersize
  7
blockfont
 73
     2
 44
0.903614
  0
LINE
  5
3F6
330
3CF
100
AcDbEntity
  8
1
  6
Continuous
 62
    18
370
    18
100
AcDbLine
 10
45.0
 20
10.0
 30
0.0
 11
75.0
 21
10.0
 31
0.0
  0
LINE
  5
3F7
330
3CF
100
AcDbEntity
  8
1
  6
Continuous
 62
    18
370
    18
100
AcDbLine
 10
75.0
 20
16.0
 30
0.0
 11
75.0
 21
10.0
 31
0.0
  0
MTEXT
  5
3F8
330
3CF
100
AcDbEntity
  8
256
  6
Continuous
 62
    18
370
    13
100
AcDbMText
 10
60.0
 20
13.0
 30
0.0
 40
2.0
 41
0.0
 71
     5
 72
     5
  1
\W0.9527;A4
  7
blockfont
 73
     2
 44
0.903614
  0
ENDBLK
  5
3FB
330
3CF
100
AcDbEntity
  8
0
100
AcDbBlockEnd
  0
BLOCK
  5
419
330
3FC
100
AcDbEntity
  8
0
100
AcDbBlockBegin
  2
TabularNote3
 70
     0
 10
0.0
 20
0.0
 30
0.0
  3
TabularNote3
  1
TabularNote3
  0
LINE
  5
3FD
330
3FC
100
AcDbEntity
  8
1
  6
Continuous
 62
    18
370
    18
100
AcDbLine
 10
75.0
 20
52.0
 30
0.0
 11
143.0
 21
52.0
 31
0.0
  0
LINE
  5
3FE
330
3FC
100
AcDbEntity
  8
1
  6
Continuous
 62
    18
370
    18
100
AcDbLine
 10
75.0
 20
52.0
 30
0.0
 11
75.0
 21
47.0
 31
0.0
  0
MTEXT
  5
3FF
330
3FC
100
AcDbEntity
  8
256
  6
Continuous
 62
    18
370
    13
100
AcDbMText
 10
76.025
 20
48.0
 30
0.0
 40
2.0
 41
0.0
 71
     7
 72
     5
  1
\W1.1123;Part Number
  7
blockfont
 73
     2
 44
0.903614
  0
LINE
  5
400
330
3FC
100
AcDbEntity
  8
1
  6
Continuous
 62
    18
370
    18
100
AcDbLine
 10
143.0
 20
52.0
 30
0.0
 11
200.0
 21
52.0
 31
0.0
  0
LINE
  5
401
330
3FC
100
AcDbEntity
  8
1
  6
Continuous
 62
    18
370
    18
100
AcDbLine
 10
200.0
 20
52.0
 30
0.0
 11
200.0
 21
47.0
 31
0.0
  0
LINE
  5
402
330
3FC
100
AcDbEntity
  8
1
  6
Continuous
 62
    18
370
    18
100
AcDbLine
 10
75.0
 20
47.0
 30
0.0
 11
75.0
 21
40.0
 31
0.0
  0
LINE
  5
403
330
3FC
100
AcDbEntity
  8
1
  6
Continuous
 62
    18
370
    18
100
AcDbLine
 10
75.0
 20
40.0
 30
0.0
 11
143.0
 21
40.0
 31
0.0
  0
MTEXT
  5
404
330
3FC
100
AcDbEntity
  8
256
  6
Continuous
 62
    18
370
    13
100
AcDbMText
 10
76.775
 20
43.5
 30
0.0
 40
3.5
 41
0.0
 71
     4
 72
     5
  1
\W1.1549;02mbtp01- cross section
  7
blockfont
 73
     2
 44
0.903614
  0
LINE
  5
405
330
3FC
100
AcDbEntity
  8
1
  6
Continuous
 62
    18
370
    18
100
AcDbLine
 10
143.0
 20
40.0
 30
0.0
 11
200.0
 21
40.0
 31
0.0
  0
LINE
  5
406
330
3FC
100
AcDbEntity
  8
1
  6
Continuous
 62
    18
370
    18
100
AcDbLine
 10
200.0
 20
47.0
 30
0.0
 11
200.0
 21
40.0
 31
0.0
  0
LINE
  5
407
330
3FC
100
AcDbEntity
  8
1
  6
Continuous
 62
    18
370
    18
100
AcDbLine
 10
75.0
 20
40.0
 30
0.0
 11
75.0
 21
33.0
 31
0.0
  0
MTEXT
  5
408
330
3FC
100
AcDbEntity
  8
256
  6
Continuous
 62
    18
370
    13
100
AcDbMText
 10
76.025
 20
39.0
 30
0.0
 40
2.0
 41
0.0
 71
     1
 72
     5
  1
\W1.5706;Title
  7
blockfont
 73
     2
 44
0.903614
  0
LINE
  5
409
330
3FC
100
AcDbEntity
  8
1
  6
Continuous
 62
    18
370
    18
100
AcDbLine
 10
200.0
 20
40.0
 30
0.0
 11
200.0
 21
33.0
 31
0.0
  0
LINE
  5
40A
330
3FC
100
AcDbEntity
  8
1
  6
Continuous
 62
    18
370
    18
100
AcDbLine
 10
75.0
 20
33.0
 30
0.0
 11
75.0
 21
22.0
 31
0.0
  0
LINE
  5
40B
330
3FC
100
AcDbEntity
  8
1
  6
Continuous
 62
    18
370
    18
100
AcDbLine
 10
75.0
 20
22.0
 30
0.0
 11
143.0
 21
22.0
 31
0.0
  0
MTEXT
  5
40C
330
3FC
100
AcDbEntity
  8
256
  6
Continuous
 62
    18
370
    13
100
AcDbMText
 10
137.5
 20
24.75
 30
0.0
 40
5.5
 41
0.0
 71
     8
 72
     5
  1
\W1.1123;MakerBeam cross section
  7
blockfont
 73
     2
 44
0.903614
  0
LINE
  5
40D
330
3FC
100
AcDbEntity
  8
1
  6
Continuous
 62
    18
370
    18
100
AcDbLine
 10
143.0
 20
22.0
 30
0.0
 11
200.0
 21
22.0
 31
0.0
  0
LINE
  5
40E
330
3FC
100
AcDbEntity
  8
1
  6
Continuous
 62
    18
370
    18
100
AcDbLine
 10
200.0
 20
33.0
 30
0.0
 11
200.0
 21
22.0
 31
0.0
  0
LINE
  5
40F
330
3FC
100
AcDbEntity
  8
1
  6
Continuous
 62
    18
370
    18
100
AcDbLine
 10
75.0
 20
22.0
 30
0.0
 11
75.0
 21
18.0
 31
0.0
  0
LINE
  5
410
330
3FC
100
AcDbEntity
  8
1
  6
Continuous
 62
    18
370
    18
100
AcDbLine
 10
143.0
 20
22.0
 30
0.0
 11
143.0
 21
18.0
 31
0.0
  0
MTEXT
  5
411
330
3FC
100
AcDbEntity
  8
256
  6
Continuous
 62
    18
370
    13
100
AcDbMText
 10
76.025
 20
19.0
 30
0.0
 40
2.0
 41
0.0
 71
     7
 72
     5
  1
\W1.3580;Material
  7
blockfont
 73
     2
 44
0.903614
  0
LINE
  5
412
330
3FC
100
AcDbEntity
  8
1
  6
Continuous
 62
    18
370
    18
100
AcDbLine
 10
200.0
 20
22.0
 30
0.0
 11
200.0
 21
18.0
 31
0.0
  0
MTEXT
  5
413
330
3FC
100
AcDbEntity
  8
256
  6
Continuous
 62
    18
370
    13
100
AcDbMText
 10
144.025
 20
19.0
 30
0.0
 40
2.0
 41
0.0
 71
     7
 72
     5
  1
\W1.2208;Weight
  7
blockfont
 73
     2
 44
0.903614
  0
LINE
  5
414
330
3FC
100
AcDbEntity
  8
1
  6
Continuous
 62
    18
370
    18
100
AcDbLine
 10
75.0
 20
18.0
 30
0.0
 11
75.0
 21
10.0
 31
0.0
  0
LINE
  5
415
330
3FC
100
AcDbEntity
  8
1
  6
Continuous
 62
    18
370
    18
100
AcDbLine
 10
143.0
 20
18.0
 30
0.0
 11
143.0
 21
10.0
 31
0.0
  0
MTEXT
  5
416
330
3FC
100
AcDbEntity
  8
256
  6
Continuous
 62
    18
370
    13
100
AcDbMText
 10
76.775
 20
14.0
 30
0.0
 40
3.5
 41
0.0
 71
     4
 72
     5
  1
\W1.0858;Aluminum T5
  7
blockfont
 73
     2
 44
0.903614
  0
MTEXT
  5
417
330
3FC
100
AcDbEntity
  8
256
  6
Continuous
 62
    18
370
    13
100
AcDbMText
 10
144.775
 20
11.75
 30
0.0
 40
3.5
 41
0.0
 71
     7
 72
     5
  1
\W1.0489;136 gr/m
  7
blockfont
 73
     2
 44
0.903614
  0
ENDBLK
  5
41A
330
3FC
100
AcDbEntity
  8
0
100
AcDbBlockEnd
  0
ENDSEC
  0
SECTION
  2
ENTITIES
  0
POINT
  5
6F
330
1F
100
AcDbEntity
  8
1
  6
Continuous
 62
   163
370
    18
100
AcDbPoint
 10
80.951519
 20
245.280345
 30
0.0
  0
POINT
  5
71
330
1F
100
AcDbEntity
  8
1
  6
Continuous
 62
   163
370
    18
100
AcDbPoint
 10
80.674393
 20
243.48897
 30
0.0
  0
POINT
  5
72
330
1F
100
AcDbEntity
  8
1
  6
Continuous
 62
   163
370
    18
100
AcDbPoint
 10
80.116715
 20
243.747789
 30
0.0
  0
POINT
  5
73
330
1F
100
AcDbEntity
  8
1
  6
Continuous
 62
   163
370
    18
100
AcDbPoint
 10
40.158401
 20
213.208189
 30
0.0
  0
POINT
  5
74
330
1F
100
AcDbEntity
  8
1
  6
Continuous
 62
   163
370
    18
100
AcDbPoint
 10
40.158401
 20
211.353622
 30
0.0
  0
POINT
  5
75
330
1F
100
AcDbEntity
  8
1
  6
Continuous
 62
   163
370
    18
100
AcDbPoint
 10
39.158401
 20
211.353622
 30
0.0
  0
POINT
  5
76
330
1F
100
AcDbEntity
  8
1
  6
Continuous
 62
   163
370
    18
100
AcDbPoint
 10
44.158401
 20
167.3514
 30
0.0
  0
POINT
  5
77
330
1F
100
AcDbEntity
  8
1
  6
Continuous
 62
   163
370
    18
100
AcDbPoint
 10
44.158401
 20
158.078562
 30
0.0
  0
POINT
  5
78
330
1F
100
AcDbEntity
  8
1
  6
Continuous
 62
   163
370
    18
100
AcDbPoint
 10
39.158401
 20
158.078562
 30
0.0
  0
LINE
  5
79
330
1F
100
AcDbEntity
  8
256
  6
Continuous
 62
     8
370
    18
100
AcDbLine
 10
72.808401
 20
228.553555
 30
0.0
 11
72.808401
 21
253.456055
 31
0.0
  0
LINE
  5
7B
330
1F
100
AcDbEntity
  8
256
  6
Continuous
 62
     8
370
    18
100
AcDbLine
 10
174.203175
 20
253.456055
 30
0.0
 11
72.808401
 21
253.456055
 31
0.0
  0
LINE
  5
7C
330
1F
100
AcDbEntity
  8
256
  6
Continuous
 62
     8
370
    18
100
AcDbLine
 10
174.203175
 20
253.456055
 30
0.0
 11
174.203175
 21
228.553555
 31
0.0
  0
LINE
  5
7D
330
1F
100
AcDbEntity
  8
256
  6
Continuous
 62
     8
370
    18
100
AcDbLine
 10
72.808401
 20
228.553555
 30
0.0
 11
174.203175
 21
228.553555
 31
0.0
  0
LINE
  5
7E
330
1F
100
AcDbEntity
  8
256
  6
Continuous
 62
     8
370
    18
100
AcDbLine
 10
32.808401
 20
198.503622
 30
0.0
 11
32.808401
 21
221.203622
 31
0.0
  0
LINE
  5
7F
330
1F
100
AcDbEntity
  8
256
  6
Continuous
 62
     8
370
    18
100
AcDbLine
 10
55.508401
 20
221.203622
 30
0.0
 11
32.808401
 21
221.203622
 31
0.0
  0
LINE
  5
80
330
1F
100
AcDbEntity
  8
256
  6
Continuous
 62
     8
370
    18
100
AcDbLine
 10
55.508401
 20
221.203622
 30
0.0
 11
55.508401
 21
198.503622
 31
0.0
  0
LINE
  5
81
330
1F
100
AcDbEntity
  8
256
  6
Continuous
 62
     8
370
    18
100
AcDbLine
 10
32.808401
 20
198.503622
 30
0.0
 11
55.508401
 21
198.503622
 31
0.0
  0
LINE
  5
82
330
1F
100
AcDbEntity
  8
256
  6
Continuous
 62
     8
370
    18
100
AcDbLine
 10
32.808401
 20
119.228562
 30
0.0
 11
32.808401
 21
181.928562
 31
0.0
  0
LINE
  5
83
330
1F
100
AcDbEntity
  8
256
  6
Continuous
 62
     8
370
    18
100
AcDbLine
 10
95.508401
 20
181.928562
 30
0.0
 11
32.808401
 21
181.928562
 31
0.0
  0
LINE
  5
84
330
1F
100
AcDbEntity
  8
256
  6
Continuous
 62
     8
370
    18
100
AcDbLine
 10
95.508401
 20
181.928562
 30
0.0
 11
95.508401
 21
119.228562
 31
0.0
  0
LINE
  5
85
330
1F
100
AcDbEntity
  8
256
  6
Continuous
 62
     8
370
    18
100
AcDbLine
 10
32.808401
 20
119.228562
 30
0.0
 11
95.508401
 21
119.228562
 31
0.0
  0
LINE
  5
86
330
1F
100
AcDbEntity
  8
256
  6
Continuous
 62
     8
 60
     1
370
    18
100
AcDbLine
 10
0.0
 20
0.0
 30
0.0
 11
0.0
 21
297.0
 31
0.0
  0
LINE
  5
87
330
1F
100
AcDbEntity
  8
256
  6
Continuous
 62
     8
 60
     1
370
    18
100
AcDbLine
 10
210.0
 20
297.0
 30
0.0
 11
0.0
 21
297.0
 31
0.0
  0
LINE
  5
88
330
1F
100
AcDbEntity
  8
256
  6
Continuous
 62
     8
 60
     1
370
    18
100
AcDbLine
 10
210.0
 20
297.0
 30
0.0
 11
210.0
 21
0.0
 31
0.0
  0
LINE
  5
89
330
1F
100
AcDbEntity
  8
256
  6
Continuous
 62
     8
 60
     1
370
    18
100
AcDbLine
 10
0.0
 20
0.0
 30
0.0
 11
210.0
 21
0.0
 31
0.0
  0
LINE
  5
8A
330
1F
100
AcDbEntity
  8
256
  6
Continuous
 62
   155
370
    18
100
AcDbLine
 10
161.429621
 20
240.798248
 30
0.0
 11
161.764228
 21
240.642956
 31
0.0
  0
LINE
  5
8B
330
1F
100
AcDbEntity
  8
256
  6
Continuous
 62
   155
370
    18
100
AcDbLine
 10
161.845877
 20
240.398007
 30
0.0
 11
161.679984
 21
239.325658
 31
0.0
  0
LINE
  5
8C
330
1F
100
AcDbEntity
  8
256
  6
Continuous
 62
   155
370
    18
100
AcDbLine
 10
161.85718
 20
239.109376
 30
0.0
 11
163.065833
 21
240.556517
 31
0.0
  0
LINE
  5
8D
330
1F
100
AcDbEntity
  8
256
  6
Continuous
 62
   155
370
    18
100
AcDbLine
 10
163.065833
 20
240.556517
 30
0.0
 11
163.364691
 21
242.488369
 31
0.0
  0
LINE
  5
8E
330
1F
100
AcDbEntity
  8
256
  6
Continuous
 62
   155
370
    18
100
AcDbLine
 10
163.364691
 20
242.488369
 30
0.0
 11
162.735721
 21
244.788354
 31
0.0
  0
LINE
  5
8F
330
1F
100
AcDbEntity
  8
256
  6
Continuous
 62
   155
370
    18
100
AcDbLine
 10
162.51983
 20
244.754504
 30
0.0
 11
162.353937
 21
243.682155
 31
0.0
  0
LINE
  5
90
330
1F
100
AcDbEntity
  8
256
  6
Continuous
 62
   155
370
    18
100
AcDbLine
 10
162.212515
 20
243.540734
 30
0.0
 11
161.877909
 21
243.696025
 31
0.0
  0
LINE
  5
91
330
1F
100
AcDbEntity
  8
256
  6
Continuous
 62
   155
370
    18
100
AcDbLine
 10
161.796259
 20
243.940974
 30
0.0
 11
162.25949
 21
246.935344
 31
0.0
  0
LINE
  5
92
330
1F
100
AcDbEntity
  8
256
  6
Continuous
 62
   155
370
    18
100
AcDbLine
 10
162.400911
 20
247.076766
 30
0.0
 11
164.129711
 21
246.274427
 31
0.0
  0
LINE
  5
93
330
1F
100
AcDbEntity
  8
256
  6
Continuous
 62
   155
370
    18
100
AcDbLine
 10
164.211361
 20
246.029478
 30
0.0
 11
164.121704
 21
245.449922
 31
0.0
  0
LINE
  5
94
330
1F
100
AcDbEntity
  8
256
  6
Continuous
 62
   155
370
    18
100
AcDbLine
 10
163.980282
 20
245.308501
 30
0.0
 11
163.361161
 21
245.595836
 31
0.0
  0
LINE
  5
95
330
1F
100
AcDbEntity
  8
256
  6
Continuous
 62
   155
370
    18
100
AcDbLine
 10
163.236291
 20
245.288924
 30
0.0
 11
164.071798
 21
243.195476
 31
0.0
  0
LINE
  5
96
330
1F
100
AcDbEntity
  8
256
  6
Continuous
 62
   155
370
    18
100
AcDbLine
 10
164.071798
 20
243.195476
 30
0.0
 11
165.187153
 21
242.677838
 31
0.0
  0
LINE
  5
97
330
1F
100
AcDbEntity
  8
256
  6
Continuous
 62
   155
370
    18
100
AcDbLine
 10
165.187153
 20
242.677838
 30
0.0
 11
166.51505
 21
243.767247
 31
0.0
  0
LINE
  5
98
330
1F
100
AcDbEntity
  8
256
  6
Continuous
 62
   155
370
    18
100
AcDbLine
 10
166.495507
 20
244.141181
 30
0.0
 11
165.876386
 21
244.428516
 31
0.0
  0
LINE
  5
99
330
1F
100
AcDbEntity
  8
256
  6
Continuous
 62
   155
370
    18
100
AcDbLine
 10
165.794736
 20
244.673465
 30
0.0
 11
165.884394
 21
245.253021
 31
0.0
  0
LINE
  5
9A
330
1F
100
AcDbEntity
  8
256
  6
Continuous
 62
   155
370
    18
100
AcDbLine
 10
166.025815
 20
245.394442
 30
0.0
 11
167.754615
 21
244.592103
 31
0.0
  0
LINE
  5
9B
330
1F
100
AcDbEntity
  8
256
  6
Continuous
 62
   155
370
    18
100
AcDbLine
 10
167.836265
 20
244.347154
 30
0.0
 11
167.373034
 21
241.352784
 31
0.0
  0
LINE
  5
9C
330
1F
100
AcDbEntity
  8
256
  6
Continuous
 62
   155
370
    18
100
AcDbLine
 10
167.231613
 20
241.211362
 30
0.0
 11
166.897007
 21
241.366654
 31
0.0
  0
LINE
  5
9D
330
1F
100
AcDbEntity
  8
256
  6
Continuous
 62
   155
370
    18
100
AcDbLine
 10
166.815357
 20
241.611603
 30
0.0
 11
166.98125
 21
242.683952
 31
0.0
  0
LINE
  5
9E
330
1F
100
AcDbEntity
  8
256
  6
Continuous
 62
   155
370
    18
100
AcDbLine
 10
166.804054
 20
242.900234
 30
0.0
 11
165.595401
 21
241.453093
 31
0.0
  0
LINE
  5
9F
330
1F
100
AcDbEntity
  8
256
  6
Continuous
 62
   155
370
    18
100
AcDbLine
 10
165.595401
 20
241.453093
 30
0.0
 11
165.296543
 21
239.521241
 31
0.0
  0
LINE
  5
A0
330
1F
100
AcDbEntity
  8
256
  6
Continuous
 62
   155
370
    18
100
AcDbLine
 10
165.296543
 20
239.521241
 30
0.0
 11
165.925513
 21
237.221256
 31
0.0
  0
LINE
  5
A1
330
1F
100
AcDbEntity
  8
256
  6
Continuous
 62
   155
370
    18
100
AcDbLine
 10
166.141404
 20
237.255106
 30
0.0
 11
166.307297
 21
238.327455
 31
0.0
  0
LINE
  5
A2
330
1F
100
AcDbEntity
  8
256
  6
Continuous
 62
   155
370
    18
100
AcDbLine
 10
166.448719
 20
238.468876
 30
0.0
 11
166.783325
 21
238.313585
 31
0.0
  0
LINE
  5
A3
330
1F
100
AcDbEntity
  8
256
  6
Continuous
 62
   155
370
    18
100
AcDbLine
 10
166.864975
 20
238.068636
 30
0.0
 11
166.401744
 21
235.074266
 31
0.0
  0
LINE
  5
A4
330
1F
100
AcDbEntity
  8
256
  6
Continuous
 62
   155
370
    18
100
AcDbLine
 10
166.260323
 20
234.932845
 30
0.0
 11
164.531523
 21
235.735184
 31
0.0
  0
LINE
  5
A5
330
1F
100
AcDbEntity
  8
256
  6
Continuous
 62
   155
370
    18
100
AcDbLine
 10
164.449873
 20
235.980133
 30
0.0
 11
164.53953
 21
236.559688
 31
0.0
  0
LINE
  5
A6
330
1F
100
AcDbEntity
  8
256
  6
Continuous
 62
   155
370
    18
100
AcDbLine
 10
164.680952
 20
236.701109
 30
0.0
 11
165.300073
 21
236.413774
 31
0.0
  0
LINE
  5
A7
330
1F
100
AcDbEntity
  8
256
  6
Continuous
 62
   155
370
    18
100
AcDbLine
 10
165.424943
 20
236.720686
 30
0.0
 11
164.589436
 21
238.814134
 31
0.0
  0
LINE
  5
A8
330
1F
100
AcDbEntity
  8
256
  6
Continuous
 62
   155
370
    18
100
AcDbLine
 10
164.589436
 20
238.814134
 30
0.0
 11
163.474081
 21
239.331773
 31
0.0
  0
LINE
  5
A9
330
1F
100
AcDbEntity
  8
256
  6
Continuous
 62
   155
370
    18
100
AcDbLine
 10
163.474081
 20
239.331773
 30
0.0
 11
162.146184
 21
238.242364
 31
0.0
  0
LINE
  5
AA
330
1F
100
AcDbEntity
  8
256
  6
Continuous
 62
   155
370
    18
100
AcDbLine
 10
162.165727
 20
237.868429
 30
0.0
 11
162.784848
 21
237.581094
 31
0.0
  0
LINE
  5
AB
330
1F
100
AcDbEntity
  8
256
  6
Continuous
 62
   155
370
    18
100
AcDbLine
 10
162.866498
 20
237.336145
 30
0.0
 11
162.77684
 21
236.75659
 31
0.0
  0
LINE
  5
AC
330
1F
100
AcDbEntity
  8
256
  6
Continuous
 62
   155
370
    18
100
AcDbLine
 10
162.635419
 20
236.615168
 30
0.0
 11
160.906619
 21
237.417507
 31
0.0
  0
LINE
  5
AD
330
1F
100
AcDbEntity
  8
256
  6
Continuous
 62
   155
370
    18
100
AcDbLine
 10
160.824969
 20
237.662456
 30
0.0
 11
161.2882
 21
240.656826
 31
0.0
  0
LINE
  5
AE
330
1F
100
AcDbEntity
  8
256
  6
Continuous
 62
   155
370
    13
100
AcDbLine
 10
160.906619
 20
237.417507
 30
0.0
 11
79.256961
 21
237.417507
 31
0.0
  0
LINE
  5
AF
330
1F
100
AcDbEntity
  8
256
  6
Continuous
 62
   155
370
    13
100
AcDbLine
 10
79.175311
 20
237.662456
 30
0.0
 11
160.824969
 21
237.662456
 31
0.0
  0
LINE
  5
B0
330
1F
100
AcDbEntity
  8
256
  6
Continuous
 62
   155
370
    13
100
AcDbLine
 10
161.2882
 20
240.656826
 30
0.0
 11
79.638542
 21
240.656826
 31
0.0
  0
LINE
  5
B1
330
1F
100
AcDbEntity
  8
256
  6
Continuous
 62
   155
370
    18
100
AcDbLine
 10
79.175311
 20
237.662456
 30
0.0
 11
79.638542
 21
240.656826
 31
0.0
  0
LINE
  5
B2
330
1F
100
AcDbEntity
  8
256
  6
Continuous
 62
   155
370
    13
100
AcDbLine
 10
162.635419
 20
236.615168
 30
0.0
 11
80.985761
 21
236.615168
 31
0.0
  0
LINE
  5
B3
330
1F
100
AcDbEntity
  8
256
  6
Continuous
 62
   155
370
    18
100
AcDbLine
 10
80.985761
 20
236.615168
 30
0.0
 11
79.256961
 21
237.417507
 31
0.0
  0
LINE
  5
B4
330
1F
100
AcDbEntity
  8
256
  6
Continuous
 62
   155
370
    13
100
AcDbLine
 10
161.85718
 20
239.109376
 30
0.0
 11
161.725775
 21
239.109376
 31
0.0
  0
LINE
  5
B5
330
1F
100
AcDbEntity
  8
256
  6
Continuous
 62
   155
370
    13
100
AcDbLine
 10
161.796259
 20
243.940974
 30
0.0
 11
80.146601
 21
243.940974
 31
0.0
  0
LINE
  5
B6
330
1F
100
AcDbEntity
  8
256
  6
Continuous
 62
   155
370
    13
100
AcDbLine
 10
161.877909
 20
243.696025
 30
0.0
 11
80.228251
 21
243.696025
 31
0.0
  0
LINE
  5
B7
330
1F
100
AcDbEntity
  8
256
  6
Continuous
 62
   155
370
    18
100
AcDbLine
 10
80.146601
 20
243.940974
 30
0.0
 11
80.609832
 21
246.935344
 31
0.0
  0
LINE
  5
B8
330
1F
100
AcDbEntity
  8
256
  6
Continuous
 62
   155
370
    13
100
AcDbLine
 10
162.25949
 20
246.935344
 30
0.0
 11
80.609832
 21
246.935344
 31
0.0
  0
LINE
  5
B9
330
1F
100
AcDbEntity
  8
256
  6
Continuous
 62
   155
370
    13
100
AcDbLine
 10
162.212515
 20
243.540734
 30
0.0
 11
80.562857
 21
243.540734
 31
0.0
  0
LINE
  5
BA
330
1F
100
AcDbEntity
  8
256
  6
Continuous
 62
   155
370
    18
100
AcDbLine
 10
80.562857
 20
243.540734
 30
0.0
 11
80.228251
 21
243.696025
 31
0.0
  0
LINE
  5
BB
330
1F
100
AcDbEntity
  8
256
  6
Continuous
 62
   155
370
    13
100
AcDbLine
 10
162.735721
 20
244.788354
 30
0.0
 11
162.526494
 21
244.788354
 31
0.0
  0
LINE
  5
BC
330
1F
100
AcDbEntity
  8
256
  6
Continuous
 62
   155
370
    18
100
AcDbLine
 10
81.715033
 20
242.488369
 30
0.0
 11
81.429107
 21
243.533928
 31
0.0
  0
LINE
  5
BD
330
1F
100
AcDbEntity
  8
256
  6
Continuous
 62
   155
370
    18
100
AcDbLine
 10
81.454629
 20
240.805092
 30
0.0
 11
81.715033
 21
242.488369
 31
0.0
  0
LINE
  5
BE
330
1F
100
AcDbEntity
  8
256
  6
Continuous
 62
   155
370
    13
100
AcDbLine
 10
163.361161
 20
245.595836
 30
0.0
 11
163.3012
 21
245.595836
 31
0.0
  0
LINE
  5
BF
330
1F
100
AcDbEntity
  8
256
  6
Continuous
 62
   155
370
    13
100
AcDbLine
 10
163.980282
 20
245.308501
 30
0.0
 11
163.22885
 21
245.308501
 31
0.0
  0
LINE
  5
C0
330
1F
100
AcDbEntity
  8
256
  6
Continuous
 62
   155
370
    13
100
AcDbLine
 10
165.424943
 20
236.720686
 30
0.0
 11
162.768778
 21
236.720686
 31
0.0
  0
LINE
  5
C1
330
1F
100
AcDbEntity
  8
256
  6
Continuous
 62
   155
370
    13
100
AcDbLine
 10
164.449873
 20
235.980133
 30
0.0
 11
82.800215
 21
235.980133
 31
0.0
  0
LINE
  5
C2
330
1F
100
AcDbEntity
  8
256
  6
Continuous
 62
   155
370
    13
100
AcDbLine
 10
164.531523
 20
235.735184
 30
0.0
 11
82.881865
 21
235.735184
 31
0.0
  0
LINE
  5
C3
330
1F
100
AcDbEntity
  8
256
  6
Continuous
 62
   155
370
    13
100
AcDbLine
 10
164.53953
 20
236.559688
 30
0.0
 11
82.889872
 21
236.559688
 31
0.0
  0
LINE
  5
C4
330
1F
100
AcDbEntity
  8
256
  6
Continuous
 62
   155
370
    18
100
AcDbLine
 10
82.800215
 20
235.980133
 30
0.0
 11
82.889872
 21
236.559688
 31
0.0
  0
LINE
  5
C5
330
1F
100
AcDbEntity
  8
256
  6
Continuous
 62
   155
370
    13
100
AcDbLine
 10
84.610665
 20
234.932845
 30
0.0
 11
166.260323
 21
234.932845
 31
0.0
  0
LINE
  5
C6
330
1F
100
AcDbEntity
  8
256
  6
Continuous
 62
   155
370
    18
100
AcDbLine
 10
84.610665
 20
234.932845
 30
0.0
 11
82.881865
 21
235.735184
 31
0.0
  0
LINE
  5
C7
330
1F
100
AcDbEntity
  8
256
  6
Continuous
 62
   155
370
    13
100
AcDbLine
 10
166.51505
 20
243.767247
 30
0.0
 11
163.843575
 21
243.767247
 31
0.0
  0
LINE
  5
C8
330
1F
100
AcDbEntity
  8
256
  6
Continuous
 62
   155
370
    13
100
AcDbLine
 10
165.794736
 20
244.673465
 30
0.0
 11
163.481754
 21
244.673465
 31
0.0
  0
LINE
  5
C9
330
1F
100
AcDbEntity
  8
256
  6
Continuous
 62
   155
370
    13
100
AcDbLine
 10
165.876386
 20
244.428516
 30
0.0
 11
163.578713
 21
244.428516
 31
0.0
  0
LINE
  5
CA
330
1F
100
AcDbEntity
  8
256
  6
Continuous
 62
   155
370
    13
100
AcDbLine
 10
165.884394
 20
245.253021
 30
0.0
 11
163.249916
 21
245.253021
 31
0.0
  0
LINE
  5
CB
330
1F
100
AcDbEntity
  8
256
  6
Continuous
 62
   155
370
    13
100
AcDbLine
 10
166.495507
 20
244.141181
 30
0.0
 11
163.693903
 21
244.141181
 31
0.0
  0
LINE
  5
CC
330
1F
100
AcDbEntity
  8
256
  6
Continuous
 62
   155
370
    13
100
AcDbLine
 10
166.141404
 20
237.255106
 30
0.0
 11
165.915592
 21
237.255106
 31
0.0
  0
LINE
  5
CD
330
1F
100
AcDbEntity
  8
256
  6
Continuous
 62
   155
370
    13
100
AcDbLine
 10
166.307297
 20
238.327455
 30
0.0
 11
165.622206
 21
238.327455
 31
0.0
  0
LINE
  5
CE
330
1F
100
AcDbEntity
  8
256
  6
Continuous
 62
   155
370
    13
100
AcDbLine
 10
166.815357
 20
241.611603
 30
0.0
 11
165.72712
 21
241.611603
 31
0.0
  0
LINE
  5
CF
330
1F
100
AcDbEntity
  8
256
  6
Continuous
 62
   155
370
    13
100
AcDbLine
 10
166.897007
 20
241.366654
 30
0.0
 11
165.581682
 21
241.366654
 31
0.0
  0
LINE
  5
D0
330
1F
100
AcDbEntity
  8
256
  6
Continuous
 62
   155
370
    13
100
AcDbLine
 10
166.98125
 20
242.683952
 30
0.0
 11
166.622757
 21
242.683952
 31
0.0
  0
LINE
  5
D1
330
1F
100
AcDbEntity
  8
256
  6
Continuous
 62
   155
370
    13
100
AcDbLine
 10
167.231613
 20
241.211362
 30
0.0
 11
165.557795
 21
241.211362
 31
0.0
  0
LINE
  5
D2
330
1F
100
AcDbEntity
  8
256
  6
Continuous
 62
   155
370
    18
100
AcDbLine
 10
163.065833
 20
240.556517
 30
0.0
 11
161.830882
 21
240.556517
 31
0.0
  0
LINE
  5
D3
330
1F
100
AcDbEntity
  8
256
  6
Continuous
 62
   155
370
    18
100
AcDbLine
 10
163.364691
 20
242.488369
 30
0.0
 11
81.715033
 21
242.488369
 31
0.0
  0
LINE
  5
D4
330
1F
100
AcDbEntity
  8
256
  6
Continuous
 62
   155
370
    18
100
AcDbLine
 10
164.589436
 20
238.814134
 30
0.0
 11
162.842899
 21
238.814134
 31
0.0
  0
LINE
  5
D5
330
1F
100
AcDbEntity
  8
1
  6
Continuous
 62
   163
370
    18
100
AcDbLine
 10
82.42214
 20
243.195476
 30
0.0
 11
81.586633
 21
245.288924
 31
0.0
  0
LINE
  5
D6
330
1F
100
AcDbEntity
  8
1
  6
PHANTOM
 62
   163
370
    18
100
AcDbLine
 10
82.680959
 20
241.004805
 30
0.0
 11
80.639717
 21
247.12853
 31
0.0
  0
LINE
  5
D7
330
1F
100
AcDbEntity
  8
1
  6
Continuous
 62
   163
370
    18
100
AcDbLine
 10
85.165699
 20
241.611603
 30
0.0
 11
85.331592
 21
242.683952
 31
0.0
  0
LINE
  5
D8
330
1F
100
AcDbEntity
  8
1
  6
Continuous
 62
   163
370
    18
100
AcDbLine
 10
82.979817
 20
242.936657
 30
0.0
 11
83.537495
 21
242.677838
 31
0.0
  0
LINE
  5
D9
330
1F
100
AcDbEntity
  8
1
  6
Continuous
 62
   163
370
    18
100
AcDbLine
 10
82.889872
 20
236.559688
 30
0.0
 11
82.800215
 21
235.980133
 31
0.0
  0
LINE
  5
DA
330
1F
100
AcDbEntity
  8
1
  6
Continuous
 62
   163
370
    18
100
AcDbLine
 10
81.21684
 20
237.336145
 30
0.0
 11
81.127182
 21
236.75659
 31
0.0
  0
LINE
  5
DB
330
1F
100
AcDbEntity
  8
1
  6
Continuous
 62
   163
370
    18
100
AcDbLine
 10
81.715033
 20
242.488369
 30
0.0
 11
81.086063
 21
244.788354
 31
0.0
  0
LINE
  5
DC
330
1F
100
AcDbEntity
  8
1
  6
PHANTOM
 62
   163
370
    18
100
AcDbLine
 10
82.680959
 20
241.004805
 30
0.0
 11
79.895511
 21
242.297536
 31
0.0
  0
LINE
  5
DD
330
1F
100
AcDbEntity
  8
1
  6
Continuous
 62
   163
370
    18
100
AcDbLine
 10
83.796314
 20
240.487167
 30
0.0
 11
83.945743
 21
241.453093
 31
0.0
  0
LINE
  5
DE
330
1F
100
AcDbEntity
  8
1
  6
Continuous
 62
   163
370
    18
100
AcDbLine
 10
84.226728
 20
244.428516
 30
0.0
 11
84.845849
 21
244.141181
 31
0.0
  0
LINE
  5
DF
330
1F
100
AcDbEntity
  8
1
  6
Continuous
 62
   163
370
    18
100
AcDbLine
 10
84.7222
 20
234.881081
 30
0.0
 11
85.215317
 21
238.068636
 31
0.0
  0
LINE
  5
E0
330
1F
100
AcDbEntity
  8
1
  6
Continuous
 62
   163
370
    18
100
AcDbLine
 10
81.824423
 20
239.331773
 30
0.0
 11
80.496526
 21
238.242364
 31
0.0
  0
LINE
  5
E1
330
1F
100
AcDbEntity
  8
1
  6
Continuous
 62
   163
370
    18
100
AcDbLine
 10
81.416175
 20
240.556517
 30
0.0
 11
80.207522
 21
239.109376
 31
0.0
  0
LINE
  5
E2
330
1F
100
AcDbEntity
  8
1
  6
Continuous
 62
   163
370
    18
100
AcDbLine
 10
80.562857
 20
243.540734
 30
0.0
 11
80.228251
 21
243.696025
 31
0.0
  0
LINE
  5
E3
330
1F
100
AcDbEntity
  8
1
  6
Continuous
 62
   163
370
    18
100
AcDbLine
 10
82.472045
 20
245.449922
 30
0.0
 11
82.561703
 21
246.029478
 31
0.0
  0
LINE
  5
E4
330
1F
100
AcDbEntity
  8
1
  6
Continuous
 62
   163
370
    18
100
AcDbLine
 10
86.216493
 20
244.540339
 30
0.0
 11
84.376157
 21
245.394442
 31
0.0
  0
LINE
  5
E5
330
1F
100
AcDbEntity
  8
1
  6
Continuous
 62
   163
370
    18
100
AcDbLine
 10
84.657639
 20
238.327455
 30
0.0
 11
84.491746
 21
237.255106
 31
0.0
  0
LINE
  5
E6
330
1F
100
AcDbEntity
  8
1
  6
Continuous
 62
   163
370
    18
100
AcDbLine
 10
82.3821
 20
239.072953
 30
0.0
 11
82.939778
 21
238.814134
 31
0.0
  0
LINE
  5
E7
330
1F
100
AcDbEntity
  8
1
  6
Continuous
 62
   163
370
    18
100
AcDbLine
 10
80.114569
 20
240.642956
 30
0.0
 11
79.779963
 21
240.798248
 31
0.0
  0
LINE
  5
E8
330
1F
100
AcDbEntity
  8
1
  6
Continuous
 62
   163
370
    18
100
AcDbLine
 10
81.565604
 20
241.522443
 30
0.0
 11
81.715033
 21
242.488369
 31
0.0
  0
LINE
  5
E9
330
1F
100
AcDbEntity
  8
1
  6
PHANTOM
 62
   163
370
    18
100
AcDbLine
 10
82.680959
 20
241.004805
 30
0.0
 11
82.830388
 21
241.970728
 31
0.0
  0
LINE
  5
EA
330
1F
100
AcDbEntity
  8
1
  6
Continuous
 62
   163
370
    18
100
AcDbLine
 10
82.979817
 20
242.936657
 30
0.0
 11
82.42214
 21
243.195476
 31
0.0
  0
LINE
  5
EB
330
1F
100
AcDbEntity
  8
1
  6
Continuous
 62
   163
370
    18
100
AcDbLine
 10
85.247348
 20
241.366654
 30
0.0
 11
85.581955
 21
241.211362
 31
0.0
  0
LINE
  5
EC
330
1F
100
AcDbEntity
  8
1
  6
Continuous
 62
   163
370
    18
100
AcDbLine
 10
83.796314
 20
240.487167
 30
0.0
 11
83.646885
 21
239.521241
 31
0.0
  0
LINE
  5
ED
330
1F
100
AcDbEntity
  8
1
  6
Continuous
 62
   163
370
    18
100
AcDbLine
 10
83.031294
 20
236.701109
 30
0.0
 11
83.650415
 21
236.413774
 31
0.0
  0
LINE
  5
EE
330
1F
100
AcDbEntity
  8
1
  6
Continuous
 62
   163
370
    18
100
AcDbLine
 10
79.145425
 20
237.469271
 30
0.0
 11
80.985761
 21
236.615168
 31
0.0
  0
LINE
  5
EF
330
1F
100
AcDbEntity
  8
1
  6
Continuous
 62
   163
370
    18
100
AcDbLine
 10
83.945743
 20
241.453093
 30
0.0
 11
85.154396
 21
242.900234
 31
0.0
  0
LINE
  5
F0
330
1F
100
AcDbEntity
  8
1
  6
Continuous
 62
   163
370
    18
100
AcDbLine
 10
83.537495
 20
242.677838
 30
0.0
 11
84.865392
 21
243.767247
 31
0.0
  0
LINE
  5
F1
330
1F
100
AcDbEntity
  8
1
  6
Continuous
 62
   163
370
    18
100
AcDbLine
 10
84.7222
 20
234.881081
 30
0.0
 11
82.881865
 21
235.735184
 31
0.0
  0
LINE
  5
F2
330
1F
100
AcDbEntity
  8
1
  6
Continuous
 62
   163
370
    18
100
AcDbLine
 10
81.13519
 20
237.581094
 30
0.0
 11
80.516069
 21
237.868429
 31
0.0
  0
LINE
  5
F3
330
1F
100
AcDbEntity
  8
1
  6
Continuous
 62
   163
370
    18
100
AcDbLine
 10
81.565604
 20
241.522443
 30
0.0
 11
81.416175
 21
240.556517
 31
0.0
  0
LINE
  5
F4
330
1F
100
AcDbEntity
  8
1
  6
Continuous
 62
   163
370
    18
100
AcDbLine
 10
80.704279
 20
243.682155
 30
0.0
 11
80.870171
 21
244.754504
 31
0.0
  0
LINE
  5
F5
330
1F
100
AcDbEntity
  8
1
  6
Continuous
 62
   163
370
    18
100
AcDbLine
 10
80.639717
 20
247.12853
 30
0.0
 11
82.480053
 21
246.274427
 31
0.0
  0
LINE
  5
F6
330
1F
100
AcDbEntity
  8
1
  6
Continuous
 62
   163
370
    18
100
AcDbLine
 10
84.145078
 20
244.673465
 30
0.0
 11
84.234736
 21
245.253021
 31
0.0
  0
LINE
  5
F7
330
1F
100
AcDbEntity
  8
1
  6
Continuous
 62
   163
370
    18
100
AcDbLine
 10
84.799061
 20
238.468876
 30
0.0
 11
85.133667
 21
238.313585
 31
0.0
  0
LINE
  5
F8
330
1F
100
AcDbEntity
  8
1
  6
Continuous
 62
   163
370
    18
100
AcDbLine
 10
82.3821
 20
239.072953
 30
0.0
 11
81.824423
 21
239.331773
 31
0.0
  0
LINE
  5
F9
330
1F
100
AcDbEntity
  8
1
  6
Continuous
 62
   163
370
    18
100
AcDbLine
 10
80.196219
 20
240.398007
 30
0.0
 11
80.030326
 21
239.325658
 31
0.0
  0
LINE
  5
FA
330
1F
100
AcDbEntity
  8
1
  6
Continuous
 62
   163
370
    18
100
AcDbLine
 10
80.639717
 20
247.12853
 30
0.0
 11
80.146601
 21
243.940974
 31
0.0
  0
LINE
  5
FB
330
1F
100
AcDbEntity
  8
1
  6
Continuous
 62
   163
370
    18
100
AcDbLine
 10
82.330624
 20
245.308501
 30
0.0
 11
81.711503
 21
245.595836
 31
0.0
  0
LINE
  5
FC
330
1F
100
AcDbEntity
  8
1
  6
Continuous
 62
   163
370
    18
100
AcDbLine
 10
86.216493
 20
244.540339
 30
0.0
 11
85.723376
 21
241.352784
 31
0.0
  0
LINE
  5
FD
330
1F
100
AcDbEntity
  8
1
  6
Continuous
 62
   163
370
    18
100
AcDbLine
 10
83.646885
 20
239.521241
 30
0.0
 11
84.275855
 21
237.221256
 31
0.0
  0
LINE
  5
FE
330
1F
100
AcDbEntity
  8
1
  6
Continuous
 62
   163
370
    18
100
AcDbLine
 10
82.939778
 20
238.814134
 30
0.0
 11
83.775285
 21
236.720686
 31
0.0
  0
LINE
  5
FF
330
1F
100
AcDbEntity
  8
1
  6
Continuous
 62
   163
370
    18
100
AcDbLine
 10
79.145425
 20
237.469271
 30
0.0
 11
79.638542
 21
240.656826
 31
0.0
  0
LINE
  5
100
330
1F
100
AcDbEntity
  8
256
  6
Continuous
 62
   155
370
    18
100
AcDbLine
 10
161.399735
 20
240.805063
 30
0.0
 11
79.750077
 21
240.805063
 31
0.0
  0
LINE
  5
101
330
1F
100
AcDbEntity
  8
256
  6
Continuous
 62
   155
370
    18
100
AcDbLine
 10
80.592743
 20
243.533919
 30
0.0
 11
162.242401
 21
243.533919
 31
0.0
  0
LINE
  5
102
330
1F
100
AcDbEntity
  8
256
  6
Continuous
 62
   155
370
    18
100
AcDbLine
 10
162.371025
 20
247.083581
 30
0.0
 11
80.721367
 21
247.083581
 31
0.0
  0
LINE
  5
103
330
1F
100
AcDbEntity
  8
256
  6
Continuous
 62
   155
370
    18
100
AcDbLine
 10
81.015647
 20
236.608354
 30
0.0
 11
162.665305
 21
236.608354
 31
0.0
  0
LINE
  5
104
330
1F
100
AcDbEntity
  8
256
  6
Continuous
 62
   155
370
    18
100
AcDbLine
 10
163.230669
 20
245.301686
 30
0.0
 11
164.010168
 21
245.301686
 31
0.0
  0
LINE
  5
105
330
1F
100
AcDbEntity
  8
256
  6
Continuous
 62
   155
370
    18
100
AcDbLine
 10
164.651066
 20
236.707924
 30
0.0
 11
162.764193
 21
236.707924
 31
0.0
  0
LINE
  5
106
330
1F
100
AcDbEntity
  8
256
  6
Continuous
 62
   155
370
    18
100
AcDbLine
 10
165.995929
 20
245.401257
 30
0.0
 11
164.109057
 21
245.401257
 31
0.0
  0
LINE
  5
107
330
1F
100
AcDbEntity
  8
256
  6
Continuous
 62
   155
370
    18
100
AcDbLine
 10
84.640551
 20
234.92603
 30
0.0
 11
166.290209
 21
234.92603
 31
0.0
  0
LINE
  5
108
330
1F
100
AcDbEntity
  8
256
  6
Continuous
 62
   155
370
    18
100
AcDbLine
 10
166.418833
 20
238.475691
 30
0.0
 11
165.581924
 21
238.475691
 31
0.0
  0
LINE
  5
109
330
1F
100
AcDbEntity
  8
256
  6
Continuous
 62
   155
370
    18
100
AcDbLine
 10
165.555787
 20
241.204548
 30
0.0
 11
167.261499
 21
241.204548
 31
0.0
  0
LINE
  5
10A
330
1F
100
AcDbEntity
  8
256
  6
Continuous
 62
   155
370
    18
100
AcDbLine
 10
42.458401
 20
204.853622
 30
0.0
 11
39.358401
 21
204.853622
 31
0.0
  0
LINE
  5
10B
330
1F
100
AcDbEntity
  8
256
  6
Continuous
 62
   155
370
    18
100
AcDbLine
 10
42.658401
 20
205.653622
 30
0.0
 11
42.658401
 21
205.053622
 31
0.0
  0
LINE
  5
10C
330
1F
100
AcDbEntity
  8
256
  6
Continuous
 62
   155
370
    18
100
AcDbLine
 10
41.348223
 20
205.853622
 30
0.0
 11
42.458401
 21
205.853622
 31
0.0
  0
LINE
  5
10D
330
1F
100
AcDbEntity
  8
256
  6
Continuous
 62
   155
370
    18
100
AcDbLine
 10
43.158401
 20
207.853622
 30
0.0
 11
41.218746
 21
206.206054
 31
0.0
  0
LINE
  5
10E
330
1F
100
AcDbEntity
  8
256
  6
Continuous
 62
   155
370
    18
100
AcDbLine
 10
45.158401
 20
207.853622
 30
0.0
 11
43.158401
 21
207.853622
 31
0.0
  0
LINE
  5
10F
330
1F
100
AcDbEntity
  8
256
  6
Continuous
 62
   155
370
    18
100
AcDbLine
 10
47.098056
 20
206.206054
 30
0.0
 11
45.158401
 21
207.853622
 31
0.0
  0
LINE
  5
110
330
1F
100
AcDbEntity
  8
256
  6
Continuous
 62
   155
370
    18
100
AcDbLine
 10
45.858401
 20
205.853622
 30
0.0
 11
46.968578
 21
205.853622
 31
0.0
  0
LINE
  5
111
330
1F
100
AcDbEntity
  8
256
  6
Continuous
 62
   155
370
    18
100
AcDbLine
 10
45.658401
 20
205.053622
 30
0.0
 11
45.658401
 21
205.653622
 31
0.0
  0
LINE
  5
112
330
1F
100
AcDbEntity
  8
256
  6
Continuous
 62
   155
370
    18
100
AcDbLine
 10
48.958401
 20
204.853622
 30
0.0
 11
45.858401
 21
204.853622
 31
0.0
  0
LINE
  5
113
330
1F
100
AcDbEntity
  8
256
  6
Continuous
 62
   155
370
    18
100
AcDbLine
 10
49.158401
 20
208.153622
 30
0.0
 11
49.158401
 21
205.053622
 31
0.0
  0
LINE
  5
114
330
1F
100
AcDbEntity
  8
256
  6
Continuous
 62
   155
370
    18
100
AcDbLine
 10
48.358401
 20
208.353622
 30
0.0
 11
48.958401
 21
208.353622
 31
0.0
  0
LINE
  5
115
330
1F
100
AcDbEntity
  8
256
  6
Continuous
 62
   155
370
    18
100
AcDbLine
 10
48.158401
 20
207.043444
 30
0.0
 11
48.158401
 21
208.153622
 31
0.0
  0
LINE
  5
116
330
1F
100
AcDbEntity
  8
256
  6
Continuous
 62
   155
370
    18
100
AcDbLine
 10
46.158401
 20
208.853622
 30
0.0
 11
47.805969
 21
206.913967
 31
0.0
  0
LINE
  5
117
330
1F
100
AcDbEntity
  8
256
  6
Continuous
 62
   155
370
    18
100
AcDbLine
 10
46.158401
 20
210.853622
 30
0.0
 11
46.158401
 21
208.853622
 31
0.0
  0
LINE
  5
118
330
1F
100
AcDbEntity
  8
256
  6
Continuous
 62
   155
370
    18
100
AcDbLine
 10
47.805969
 20
212.793277
 30
0.0
 11
46.158401
 21
210.853622
 31
0.0
  0
LINE
  5
119
330
1F
100
AcDbEntity
  8
256
  6
Continuous
 62
   155
370
    18
100
AcDbLine
 10
48.158401
 20
211.553622
 30
0.0
 11
48.158401
 21
212.663799
 31
0.0
  0
LINE
  5
11A
330
1F
100
AcDbEntity
  8
256
  6
Continuous
 62
   155
370
    18
100
AcDbLine
 10
48.958401
 20
211.353622
 30
0.0
 11
48.358401
 21
211.353622
 31
0.0
  0
LINE
  5
11B
330
1F
100
AcDbEntity
  8
256
  6
Continuous
 62
   155
370
    18
100
AcDbLine
 10
49.158401
 20
214.653622
 30
0.0
 11
49.158401
 21
211.553622
 31
0.0
  0
LINE
  5
11C
330
1F
100
AcDbEntity
  8
256
  6
Continuous
 62
   155
370
    18
100
AcDbLine
 10
45.858401
 20
214.853622
 30
0.0
 11
48.958401
 21
214.853622
 31
0.0
  0
LINE
  5
11D
330
1F
100
AcDbEntity
  8
256
  6
Continuous
 62
   155
370
    18
100
AcDbLine
 10
45.658401
 20
214.053622
 30
0.0
 11
45.658401
 21
214.653622
 31
0.0
  0
LINE
  5
11E
330
1F
100
AcDbEntity
  8
256
  6
Continuous
 62
   155
370
    18
100
AcDbLine
 10
46.968578
 20
213.853622
 30
0.0
 11
45.858401
 21
213.853622
 31
0.0
  0
LINE
  5
11F
330
1F
100
AcDbEntity
  8
256
  6
Continuous
 62
   155
370
    18
100
AcDbLine
 10
45.158401
 20
211.853622
 30
0.0
 11
47.098056
 21
213.50119
 31
0.0
  0
LINE
  5
120
330
1F
100
AcDbEntity
  8
256
  6
Continuous
 62
   155
370
    18
100
AcDbLine
 10
43.158401
 20
211.853622
 30
0.0
 11
45.158401
 21
211.853622
 31
0.0
  0
LINE
  5
121
330
1F
100
AcDbEntity
  8
256
  6
Continuous
 62
   155
370
    18
100
AcDbLine
 10
41.218746
 20
213.50119
 30
0.0
 11
43.158401
 21
211.853622
 31
0.0
  0
LINE
  5
122
330
1F
100
AcDbEntity
  8
256
  6
Continuous
 62
   155
370
    18
100
AcDbLine
 10
42.458401
 20
213.853622
 30
0.0
 11
41.348223
 21
213.853622
 31
0.0
  0
LINE
  5
123
330
1F
100
AcDbEntity
  8
256
  6
Continuous
 62
   155
370
    18
100
AcDbLine
 10
42.658401
 20
214.653622
 30
0.0
 11
42.658401
 21
214.053622
 31
0.0
  0
LINE
  5
124
330
1F
100
AcDbEntity
  8
256
  6
Continuous
 62
   155
370
    18
100
AcDbLine
 10
39.358401
 20
214.853622
 30
0.0
 11
42.458401
 21
214.853622
 31
0.0
  0
LINE
  5
125
330
1F
100
AcDbEntity
  8
256
  6
Continuous
 62
   155
370
    18
100
AcDbLine
 10
39.158401
 20
211.553622
 30
0.0
 11
39.158401
 21
214.653622
 31
0.0
  0
LINE
  5
126
330
1F
100
AcDbEntity
  8
256
  6
Continuous
 62
   155
370
    18
100
AcDbLine
 10
39.958401
 20
211.353622
 30
0.0
 11
39.358401
 21
211.353622
 31
0.0
  0
LINE
  5
127
330
1F
100
AcDbEntity
  8
256
  6
Continuous
 62
   155
370
    18
100
AcDbLine
 10
40.158401
 20
212.663799
 30
0.0
 11
40.158401
 21
211.553622
 31
0.0
  0
LINE
  5
128
330
1F
100
AcDbEntity
  8
256
  6
Continuous
 62
   155
370
    18
100
AcDbLine
 10
42.158401
 20
210.853622
 30
0.0
 11
40.510833
 21
212.793277
 31
0.0
  0
LINE
  5
129
330
1F
100
AcDbEntity
  8
256
  6
Continuous
 62
   155
370
    18
100
AcDbLine
 10
42.158401
 20
208.853622
 30
0.0
 11
42.158401
 21
210.853622
 31
0.0
  0
LINE
  5
12A
330
1F
100
AcDbEntity
  8
256
  6
Continuous
 62
   155
370
    18
100
AcDbLine
 10
40.510833
 20
206.913967
 30
0.0
 11
42.158401
 21
208.853622
 31
0.0
  0
LINE
  5
12B
330
1F
100
AcDbEntity
  8
256
  6
Continuous
 62
   155
370
    18
100
AcDbLine
 10
40.158401
 20
208.153622
 30
0.0
 11
40.158401
 21
207.043444
 31
0.0
  0
LINE
  5
12C
330
1F
100
AcDbEntity
  8
256
  6
Continuous
 62
   155
370
    18
100
AcDbLine
 10
39.358401
 20
208.353622
 30
0.0
 11
39.958401
 21
208.353622
 31
0.0
  0
LINE
  5
12D
330
1F
100
AcDbEntity
  8
256
  6
Continuous
 62
   155
370
    18
100
AcDbLine
 10
39.158401
 20
205.053622
 30
0.0
 11
39.158401
 21
208.153622
 31
0.0
  0
LINE
  5
12E
330
1F
100
AcDbEntity
  8
1
  6
Continuous
 62
   163
 60
     1
370
    18
100
AcDbLine
 10
39.158401
 20
214.853622
 30
0.0
 11
39.158401
 21
211.553622
 31
0.0
  0
LINE
  5
12F
330
1F
100
AcDbEntity
  8
1
  6
Continuous
 62
   163
 60
     1
370
    18
100
AcDbLine
 10
39.158401
 20
214.853622
 30
0.0
 11
42.458401
 21
214.853622
 31
0.0
  0
LINE
  5
130
330
1F
100
AcDbEntity
  8
1
  6
Continuous
 62
   163
370
    18
100
AcDbLine
 10
43.158401
 20
211.853622
 30
0.0
 11
41.218746
 21
213.50119
 31
0.0
  0
LINE
  5
131
330
1F
100
AcDbEntity
  8
1
  6
PHANTOM
 62
   163
370
    18
100
AcDbLine
 10
44.158401
 20
209.853622
 30
0.0
 11
39.158401
 21
214.853622
 31
0.0
  0
LINE
  5
132
330
1F
100
AcDbEntity
  8
1
  6
Continuous
 62
   163
370
    18
100
AcDbLine
 10
48.158401
 20
211.553622
 30
0.0
 11
48.158401
 21
212.663799
 31
0.0
  0
LINE
  5
133
330
1F
100
AcDbEntity
  8
1
  6
Continuous
 62
   163
370
    18
100
AcDbLine
 10
44.158401
 20
211.853622
 30
0.0
 11
45.158401
 21
211.853622
 31
0.0
  0
LINE
  5
134
330
1F
100
AcDbEntity
  8
1
  6
Continuous
 62
   163
370
    18
100
AcDbLine
 10
45.658401
 20
205.653622
 30
0.0
 11
45.658401
 21
205.053622
 31
0.0
  0
LINE
  5
135
330
1F
100
AcDbEntity
  8
1
  6
Continuous
 62
   163
370
    18
100
AcDbLine
 10
42.658401
 20
205.653622
 30
0.0
 11
42.658401
 21
205.053622
 31
0.0
  0
LINE
  5
136
330
1F
100
AcDbEntity
  8
1
  6
Continuous
 62
   163
370
    18
100
AcDbLine
 10
42.158401
 20
210.853622
 30
0.0
 11
40.510833
 21
212.793277
 31
0.0
  0
LINE
  5
137
330
1F
100
AcDbEntity
  8
1
  6
PHANTOM
 62
   163
370
    18
100
AcDbLine
 10
44.158401
 20
209.853622
 30
0.0
 11
39.163673
 21
209.853622
 31
0.0
  0
LINE
  5
138
330
1F
100
AcDbEntity
  8
1
  6
Continuous
 62
   163
370
    18
100
AcDbLine
 10
46.158401
 20
209.853622
 30
0.0
 11
46.158401
 21
210.853622
 31
0.0
  0
LINE
  5
139
330
1F
100
AcDbEntity
  8
1
  6
Continuous
 62
   163
370
    18
100
AcDbLine
 10
45.858401
 20
213.853622
 30
0.0
 11
46.968578
 21
213.853622
 31
0.0
  0
LINE
  5
13A
330
1F
100
AcDbEntity
  8
1
  6
Continuous
 62
   163
370
    18
100
AcDbLine
 10
49.158401
 20
204.853622
 30
0.0
 11
49.158401
 21
208.153622
 31
0.0
  0
LINE
  5
13B
330
1F
100
AcDbEntity
  8
1
  6
Continuous
 62
   163
370
    18
100
AcDbLine
 10
43.158401
 20
207.853622
 30
0.0
 11
41.218746
 21
206.206054
 31
0.0
  0
LINE
  5
13C
330
1F
100
AcDbEntity
  8
1
  6
Continuous
 62
   163
370
    18
100
AcDbLine
 10
42.158401
 20
208.853622
 30
0.0
 11
40.510833
 21
206.913967
 31
0.0
  0
LINE
  5
13D
330
1F
100
AcDbEntity
  8
1
  6
Continuous
 62
   163
370
    18
100
AcDbLine
 10
39.958401
 20
211.353622
 30
0.0
 11
39.358401
 21
211.353622
 31
0.0
  0
LINE
  5
13E
330
1F
100
AcDbEntity
  8
1
  6
Continuous
 62
   163
370
    18
100
AcDbLine
 10
42.658401
 20
214.053622
 30
0.0
 11
42.658401
 21
214.653622
 31
0.0
  0
LINE
  5
13F
330
1F
100
AcDbEntity
  8
1
  6
Continuous
 62
   163
370
    18
100
AcDbLine
 10
49.158401
 20
214.853622
 30
0.0
 11
45.858401
 21
214.853622
 31
0.0
  0
LINE
  5
140
330
1F
100
AcDbEntity
  8
1
  6
Continuous
 62
   163
370
    18
100
AcDbLine
 10
48.158401
 20
208.153622
 30
0.0
 11
48.158401
 21
207.043444
 31
0.0
  0
LINE
  5
141
330
1F
100
AcDbEntity
  8
1
  6
Continuous
 62
   163
370
    18
100
AcDbLine
 10
44.158401
 20
207.853622
 30
0.0
 11
45.158401
 21
207.853622
 31
0.0
  0
LINE
  5
142
330
1F
100
AcDbEntity
  8
1
  6
Continuous
 62
   163
370
    18
100
AcDbLine
 10
39.958401
 20
208.353622
 30
0.0
 11
39.358401
 21
208.353622
 31
0.0
  0
LINE
  5
143
330
1F
100
AcDbEntity
  8
1
  6
Continuous
 62
   163
370
    18
100
AcDbLine
 10
42.158401
 20
209.853622
 30
0.0
 11
42.158401
 21
210.853622
 31
0.0
  0
LINE
  5
144
330
1F
100
AcDbEntity
  8
1
  6
PHANTOM
 62
   163
370
    18
100
AcDbLine
 10
44.158401
 20
209.853622
 30
0.0
 11
44.158401
 21
210.853619
 31
0.0
  0
LINE
  5
145
330
1F
100
AcDbEntity
  8
1
  6
Continuous
 62
   163
370
    18
100
AcDbLine
 10
44.158401
 20
211.853622
 30
0.0
 11
43.158401
 21
211.853622
 31
0.0
  0
LINE
  5
146
330
1F
100
AcDbEntity
  8
1
  6
Continuous
 62
   163
370
    18
100
AcDbLine
 10
48.358401
 20
211.353622
 30
0.0
 11
48.958401
 21
211.353622
 31
0.0
  0
LINE
  5
147
330
1F
100
AcDbEntity
  8
1
  6
Continuous
 62
   163
370
    18
100
AcDbLine
 10
46.158401
 20
209.853622
 30
0.0
 11
46.158401
 21
208.853622
 31
0.0
  0
LINE
  5
148
330
1F
100
AcDbEntity
  8
1
  6
Continuous
 62
   163
370
    18
100
AcDbLine
 10
45.858401
 20
205.853622
 30
0.0
 11
46.968578
 21
205.853622
 31
0.0
  0
LINE
  5
149
330
1F
100
AcDbEntity
  8
1
  6
Continuous
 62
   163
370
    18
100
AcDbLine
 10
39.158401
 20
204.853622
 30
0.0
 11
42.458401
 21
204.853622
 31
0.0
  0
LINE
  5
14A
330
1F
100
AcDbEntity
  8
1
  6
Continuous
 62
   163
370
    18
100
AcDbLine
 10
46.158401
 20
210.853622
 30
0.0
 11
47.805969
 21
212.793277
 31
0.0
  0
LINE
  5
14B
330
1F
100
AcDbEntity
  8
1
  6
Continuous
 62
   163
370
    18
100
AcDbLine
 10
45.158401
 20
211.853622
 30
0.0
 11
47.098056
 21
213.50119
 31
0.0
  0
LINE
  5
14C
330
1F
100
AcDbEntity
  8
1
  6
Continuous
 62
   163
370
    18
100
AcDbLine
 10
49.158401
 20
204.853622
 30
0.0
 11
45.858401
 21
204.853622
 31
0.0
  0
LINE
  5
14D
330
1F
100
AcDbEntity
  8
1
  6
Continuous
 62
   163
370
    18
100
AcDbLine
 10
42.458401
 20
205.853622
 30
0.0
 11
41.348223
 21
205.853622
 31
0.0
  0
LINE
  5
14E
330
1F
100
AcDbEntity
  8
1
  6
Continuous
 62
   163
370
    18
100
AcDbLine
 10
42.158401
 20
209.853622
 30
0.0
 11
42.158401
 21
208.853622
 31
0.0
  0
LINE
  5
14F
330
1F
100
AcDbEntity
  8
1
  6
Continuous
 62
   163
370
    18
100
AcDbLine
 10
40.158401
 20
211.553622
 30
0.0
 11
40.158401
 21
212.663799
 31
0.0
  0
LINE
  5
150
330
1F
100
AcDbEntity
  8
1
  6
Continuous
 62
   163
370
    18
100
AcDbLine
 10
45.658401
 20
214.053622
 30
0.0
 11
45.658401
 21
214.653622
 31
0.0
  0
LINE
  5
151
330
1F
100
AcDbEntity
  8
1
  6
Continuous
 62
   163
370
    18
100
AcDbLine
 10
48.358401
 20
208.353622
 30
0.0
 11
48.958401
 21
208.353622
 31
0.0
  0
LINE
  5
152
330
1F
100
AcDbEntity
  8
1
  6
Continuous
 62
   163
370
    18
100
AcDbLine
 10
44.158401
 20
207.853622
 30
0.0
 11
43.158401
 21
207.853622
 31
0.0
  0
LINE
  5
153
330
1F
100
AcDbEntity
  8
1
  6
Continuous
 62
   163
370
    18
100
AcDbLine
 10
40.158401
 20
208.153622
 30
0.0
 11
40.158401
 21
207.043444
 31
0.0
  0
LINE
  5
154
330
1F
100
AcDbEntity
  8
1
  6
Continuous
 62
   163
370
    18
100
AcDbLine
 10
42.458401
 20
213.853622
 30
0.0
 11
41.348223
 21
213.853622
 31
0.0
  0
LINE
  5
155
330
1F
100
AcDbEntity
  8
1
  6
Continuous
 62
   163
370
    18
100
AcDbLine
 10
49.158401
 20
214.853622
 30
0.0
 11
49.158401
 21
211.553622
 31
0.0
  0
LINE
  5
156
330
1F
100
AcDbEntity
  8
1
  6
Continuous
 62
   163
370
    18
100
AcDbLine
 10
46.158401
 20
208.853622
 30
0.0
 11
47.805969
 21
206.913967
 31
0.0
  0
LINE
  5
157
330
1F
100
AcDbEntity
  8
1
  6
Continuous
 62
   163
370
    18
100
AcDbLine
 10
45.158401
 20
207.853622
 30
0.0
 11
47.098056
 21
206.206054
 31
0.0
  0
LINE
  5
158
330
1F
100
AcDbEntity
  8
1
  6
Continuous
 62
   163
370
    18
100
AcDbLine
 10
39.158401
 20
204.853622
 30
0.0
 11
39.158401
 21
208.153622
 31
0.0
  0
LINE
  5
159
330
1F
100
AcDbEntity
  8
256
  6
Continuous
 62
   155
370
    18
100
AcDbLine
 10
40.158401
 20
175.578562
 30
0.0
 11
55.658401
 21
175.578562
 31
0.0
  0
LINE
  5
15A
102
{ACAD_REACTORS
330
32F
102
}
330
1F
100
AcDbEntity
  8
256
  6
Continuous
 62
   155
370
    18
100
AcDbLine
 10
88.158401
 20
158.078562
 30
0.0
 11
85.158401
 21
158.078562
 31
0.0
  0
LINE
  5
15B
102
{ACAD_REACTORS
330
37F
102
}
330
1F
100
AcDbEntity
  8
256
  6
Continuous
 62
   155
370
    18
100
AcDbLine
 10
74.158401
 20
155.578562
 30
0.0
 11
74.158401
 21
145.578562
 31
0.0
  0
LINE
  5
15C
102
{ACAD_REACTORS
330
398
102
}
330
1F
100
AcDbEntity
  8
256
  6
Continuous
 62
   155
370
    18
100
AcDbLine
 10
59.158401
 20
160.578562
 30
0.0
 11
69.158401
 21
160.578562
 31
0.0
  0
LINE
  5
15D
330
1F
100
AcDbEntity
  8
256
  6
Continuous
 62
   155
370
    18
100
AcDbLine
 10
72.658401
 20
175.578562
 30
0.0
 11
88.158401
 21
175.578562
 31
0.0
  0
LINE
  5
15E
102
{ACAD_REACTORS
330
398
102
}
330
1F
100
AcDbEntity
  8
256
  6
Continuous
 62
   155
370
    18
100
AcDbLine
 10
69.158401
 20
160.578562
 30
0.0
 11
78.856676
 21
168.816402
 31
0.0
  0
LINE
  5
15F
330
1F
100
AcDbEntity
  8
256
  6
Continuous
 62
   155
370
    18
100
AcDbLine
 10
55.658401
 20
125.578562
 30
0.0
 11
40.158401
 21
125.578562
 31
0.0
  0
LINE
  5
160
330
1F
100
AcDbEntity
  8
256
  6
Continuous
 62
   155
370
    18
100
AcDbLine
 10
50.107514
 20
130.578562
 30
0.0
 11
55.658401
 21
130.578562
 31
0.0
  0
LINE
  5
161
330
1F
100
AcDbEntity
  8
256
  6
Continuous
 62
   155
370
    18
100
AcDbLine
 10
89.158401
 20
142.078562
 30
0.0
 11
89.158401
 21
126.578562
 31
0.0
  0
LINE
  5
162
330
1F
100
AcDbEntity
  8
256
  6
Continuous
 62
   155
370
    18
100
AcDbLine
 10
85.158401
 20
143.078562
 30
0.0
 11
88.158401
 21
143.078562
 31
0.0
  0
LINE
  5
163
330
1F
100
AcDbEntity
  8
256
  6
Continuous
 62
   155
370
    18
100
AcDbLine
 10
56.658401
 20
129.578562
 30
0.0
 11
56.658401
 21
126.578562
 31
0.0
  0
LINE
  5
164
330
1F
100
AcDbEntity
  8
256
  6
Continuous
 62
   155
370
    18
100
AcDbLine
 10
59.158401
 20
140.578562
 30
0.0
 11
49.460125
 21
132.340722
 31
0.0
  0
LINE
  5
165
330
1F
100
AcDbEntity
  8
256
  6
Continuous
 62
   155
370
    18
100
AcDbLine
 10
69.158401
 20
140.578562
 30
0.0
 11
59.158401
 21
140.578562
 31
0.0
  0
LINE
  5
166
330
1F
100
AcDbEntity
  8
256
  6
Continuous
 62
   155
370
    18
100
AcDbLine
 10
78.856676
 20
132.340722
 30
0.0
 11
69.158401
 21
140.578562
 31
0.0
  0
LINE
  5
167
330
1F
100
AcDbEntity
  8
256
  6
Continuous
 62
   155
370
    18
100
AcDbLine
 10
72.658401
 20
130.578562
 30
0.0
 11
78.209288
 21
130.578562
 31
0.0
  0
LINE
  5
168
330
1F
100
AcDbEntity
  8
256
  6
Continuous
 62
   155
370
    18
100
AcDbLine
 10
71.658401
 20
126.578562
 30
0.0
 11
71.658401
 21
129.578562
 31
0.0
  0
LINE
  5
169
330
1F
100
AcDbEntity
  8
256
  6
Continuous
 62
   155
370
    18
100
AcDbLine
 10
88.158401
 20
125.578562
 30
0.0
 11
72.658401
 21
125.578562
 31
0.0
  0
LINE
  5
16A
330
1F
100
AcDbEntity
  8
256
  6
Continuous
 62
   155
370
    18
100
AcDbLine
 10
84.158401
 20
136.527675
 30
0.0
 11
84.158401
 21
142.078562
 31
0.0
  0
LINE
  5
16B
330
1F
100
AcDbEntity
  8
256
  6
Continuous
 62
   155
370
    18
100
AcDbLine
 10
74.158401
 20
145.578562
 30
0.0
 11
82.396241
 21
135.880286
 31
0.0
  0
LINE
  5
16C
330
1F
100
AcDbEntity
  8
256
  6
Continuous
 62
   155
370
    18
100
AcDbLine
 10
82.396241
 20
165.276837
 30
0.0
 11
74.158401
 21
155.578562
 31
0.0
  0
LINE
  5
16D
330
1F
100
AcDbEntity
  8
256
  6
Continuous
 62
   155
370
    18
100
AcDbLine
 10
84.158401
 20
159.078562
 30
0.0
 11
84.158401
 21
164.629449
 31
0.0
  0
LINE
  5
16E
330
1F
100
AcDbEntity
  8
256
  6
Continuous
 62
   155
370
    18
100
AcDbLine
 10
89.158401
 20
174.578562
 30
0.0
 11
89.158401
 21
159.078562
 31
0.0
  0
LINE
  5
16F
330
1F
100
AcDbEntity
  8
256
  6
Continuous
 62
   155
370
    18
100
AcDbLine
 10
71.658401
 20
171.578562
 30
0.0
 11
71.658401
 21
174.578562
 31
0.0
  0
LINE
  5
170
330
1F
100
AcDbEntity
  8
256
  6
Continuous
 62
   155
370
    18
100
AcDbLine
 10
78.209288
 20
170.578562
 30
0.0
 11
72.658401
 21
170.578562
 31
0.0
  0
LINE
  5
171
330
1F
100
AcDbEntity
  8
256
  6
Continuous
 62
   155
370
    18
100
AcDbLine
 10
49.460125
 20
168.816402
 30
0.0
 11
59.158401
 21
160.578562
 31
0.0
  0
LINE
  5
172
330
1F
100
AcDbEntity
  8
256
  6
Continuous
 62
   155
370
    18
100
AcDbLine
 10
55.658401
 20
170.578562
 30
0.0
 11
50.107514
 21
170.578562
 31
0.0
  0
LINE
  5
173
330
1F
100
AcDbEntity
  8
256
  6
Continuous
 62
   155
370
    18
100
AcDbLine
 10
56.658401
 20
174.578562
 30
0.0
 11
56.658401
 21
171.578562
 31
0.0
  0
LINE
  5
174
330
1F
100
AcDbEntity
  8
256
  6
Continuous
 62
   155
370
    18
100
AcDbLine
 10
39.158401
 20
159.078562
 30
0.0
 11
39.158401
 21
174.578562
 31
0.0
  0
LINE
  5
175
330
1F
100
AcDbEntity
  8
256
  6
Continuous
 62
   155
370
    18
100
AcDbLine
 10
43.158401
 20
158.078562
 30
0.0
 11
40.158401
 21
158.078562
 31
0.0
  0
LINE
  5
176
330
1F
100
AcDbEntity
  8
256
  6
Continuous
 62
   155
370
    18
100
AcDbLine
 10
44.158401
 20
164.629449
 30
0.0
 11
44.158401
 21
159.078562
 31
0.0
  0
LINE
  5
177
330
1F
100
AcDbEntity
  8
256
  6
Continuous
 62
   155
370
    18
100
AcDbLine
 10
54.158401
 20
155.578562
 30
0.0
 11
45.920561
 21
165.276837
 31
0.0
  0
LINE
  5
178
330
1F
100
AcDbEntity
  8
256
  6
Continuous
 62
   155
370
    18
100
AcDbLine
 10
54.158401
 20
145.578562
 30
0.0
 11
54.158401
 21
155.578562
 31
0.0
  0
LINE
  5
179
330
1F
100
AcDbEntity
  8
256
  6
Continuous
 62
   155
370
    18
100
AcDbLine
 10
45.920561
 20
135.880286
 30
0.0
 11
54.158401
 21
145.578562
 31
0.0
  0
LINE
  5
17A
330
1F
100
AcDbEntity
  8
256
  6
Continuous
 62
   155
370
    18
100
AcDbLine
 10
44.158401
 20
142.078562
 30
0.0
 11
44.158401
 21
136.527675
 31
0.0
  0
LINE
  5
17B
330
1F
100
AcDbEntity
  8
256
  6
Continuous
 62
   155
370
    18
100
AcDbLine
 10
40.158401
 20
143.078562
 30
0.0
 11
43.158401
 21
143.078562
 31
0.0
  0
LINE
  5
17C
330
1F
100
AcDbEntity
  8
256
  6
Continuous
 62
   155
370
    18
100
AcDbLine
 10
39.158401
 20
126.578562
 30
0.0
 11
39.158401
 21
142.078562
 31
0.0
  0
LINE
  5
17D
330
1F
100
AcDbEntity
  8
1
  6
Continuous
 62
   163
370
    18
100
AcDbLine
 10
59.158401
 20
160.578562
 30
0.0
 11
49.460125
 21
168.816402
 31
0.0
  0
LINE
  5
17E
330
1F
100
AcDbEntity
  8
1
  6
PHANTOM
 62
   163
370
    18
100
AcDbLine
 10
64.158401
 20
150.578562
 30
0.0
 11
39.158401
 21
175.578562
 31
0.0
  0
LINE
  5
17F
330
1F
100
AcDbEntity
  8
1
  6
Continuous
 62
   163
370
    18
100
AcDbLine
 10
84.158401
 20
159.078562
 30
0.0
 11
84.158401
 21
164.629449
 31
0.0
  0
LINE
  5
180
330
1F
100
AcDbEntity
  8
1
  6
Continuous
 62
   163
370
    18
100
AcDbLine
 10
64.158401
 20
160.578562
 30
0.0
 11
69.158401
 21
160.578562
 31
0.0
  0
LINE
  5
181
330
1F
100
AcDbEntity
  8
1
  6
Continuous
 62
   163
370
    18
100
AcDbLine
 10
71.658401
 20
129.578562
 30
0.0
 11
71.658401
 21
126.578562
 31
0.0
  0
LINE
  5
182
330
1F
100
AcDbEntity
  8
1
  6
Continuous
 62
   163
370
    18
100
AcDbLine
 10
56.658401
 20
129.578562
 30
0.0
 11
56.658401
 21
126.578562
 31
0.0
  0
LINE
  5
183
330
1F
100
AcDbEntity
  8
1
  6
Continuous
 62
   163
370
    18
100
AcDbLine
 10
54.158401
 20
155.578562
 30
0.0
 11
45.920561
 21
165.276837
 31
0.0
  0
LINE
  5
184
330
1F
100
AcDbEntity
  8
1
  6
PHANTOM
 62
   163
370
    18
100
AcDbLine
 10
64.158401
 20
150.578562
 30
0.0
 11
39.18476
 21
150.578562
 31
0.0
  0
LINE
  5
185
330
1F
100
AcDbEntity
  8
1
  6
Continuous
 62
   163
370
    18
100
AcDbLine
 10
74.158401
 20
150.578562
 30
0.0
 11
74.158401
 21
155.578562
 31
0.0
  0
LINE
  5
186
330
1F
100
AcDbEntity
  8
1
  6
Continuous
 62
   163
370
    18
100
AcDbLine
 10
72.658401
 20
170.578562
 30
0.0
 11
78.209288
 21
170.578562
 31
0.0
  0
LINE
  5
187
330
1F
100
AcDbEntity
  8
1
  6
Continuous
 62
   163
370
    18
100
AcDbLine
 10
89.158401
 20
125.578562
 30
0.0
 11
89.158401
 21
142.078562
 31
0.0
  0
LINE
  5
188
330
1F
100
AcDbEntity
  8
1
  6
Continuous
 62
   163
370
    18
100
AcDbLine
 10
59.158401
 20
140.578562
 30
0.0
 11
49.460125
 21
132.340722
 31
0.0
  0
LINE
  5
189
330
1F
100
AcDbEntity
  8
1
  6
Continuous
 62
   163
370
    18
100
AcDbLine
 10
54.158401
 20
145.578562
 30
0.0
 11
45.920561
 21
135.880286
 31
0.0
  0
LINE
  5
18A
330
1F
100
AcDbEntity
  8
1
  6
Continuous
 62
   163
370
    18
100
AcDbLine
 10
43.158401
 20
158.078562
 30
0.0
 11
40.158401
 21
158.078562
 31
0.0
  0
LINE
  5
18B
330
1F
100
AcDbEntity
  8
1
  6
Continuous
 62
   163
370
    18
100
AcDbLine
 10
56.658401
 20
171.578562
 30
0.0
 11
56.658401
 21
174.578562
 31
0.0
  0
LINE
  5
18C
330
1F
100
AcDbEntity
  8
1
  6
Continuous
 62
   163
370
    18
100
AcDbLine
 10
89.158401
 20
175.578562
 30
0.0
 11
72.658401
 21
175.578562
 31
0.0
  0
LINE
  5
18D
330
1F
100
AcDbEntity
  8
1
  6
Continuous
 62
   163
370
    18
100
AcDbLine
 10
84.158401
 20
142.078562
 30
0.0
 11
84.158401
 21
136.527675
 31
0.0
  0
LINE
  5
18E
330
1F
100
AcDbEntity
  8
1
  6
Continuous
 62
   163
370
    18
100
AcDbLine
 10
64.158401
 20
140.578562
 30
0.0
 11
69.158401
 21
140.578562
 31
0.0
  0
LINE
  5
18F
330
1F
100
AcDbEntity
  8
1
  6
Continuous
 62
   163
370
    18
100
AcDbLine
 10
43.158401
 20
143.078562
 30
0.0
 11
40.158401
 21
143.078562
 31
0.0
  0
LINE
  5
190
330
1F
100
AcDbEntity
  8
1
  6
Continuous
 62
   163
370
    18
100
AcDbLine
 10
54.158401
 20
150.578562
 30
0.0
 11
54.158401
 21
155.578562
 31
0.0
  0
LINE
  5
191
330
1F
100
AcDbEntity
  8
1
  6
PHANTOM
 62
   163
370
    18
100
AcDbLine
 10
64.158401
 20
150.578562
 30
0.0
 11
64.158401
 21
155.578548
 31
0.0
  0
LINE
  5
192
330
1F
100
AcDbEntity
  8
1
  6
Continuous
 62
   163
370
    18
100
AcDbLine
 10
64.158401
 20
160.578562
 30
0.0
 11
59.158401
 21
160.578562
 31
0.0
  0
LINE
  5
193
330
1F
100
AcDbEntity
  8
1
  6
Continuous
 62
   163
370
    18
100
AcDbLine
 10
85.158401
 20
158.078562
 30
0.0
 11
88.158401
 21
158.078562
 31
0.0
  0
LINE
  5
194
330
1F
100
AcDbEntity
  8
1
  6
Continuous
 62
   163
370
    18
100
AcDbLine
 10
74.158401
 20
150.578562
 30
0.0
 11
74.158401
 21
145.578562
 31
0.0
  0
LINE
  5
195
330
1F
100
AcDbEntity
  8
1
  6
Continuous
 62
   163
370
    18
100
AcDbLine
 10
72.658401
 20
130.578562
 30
0.0
 11
78.209288
 21
130.578562
 31
0.0
  0
LINE
  5
196
330
1F
100
AcDbEntity
  8
1
  6
Continuous
 62
   163
370
    18
100
AcDbLine
 10
39.158401
 20
125.578562
 30
0.0
 11
55.658401
 21
125.578562
 31
0.0
  0
LINE
  5
197
330
1F
100
AcDbEntity
  8
1
  6
Continuous
 62
   163
370
    18
100
AcDbLine
 10
74.158401
 20
155.578562
 30
0.0
 11
82.396241
 21
165.276837
 31
0.0
  0
LINE
  5
198
330
1F
100
AcDbEntity
  8
1
  6
Continuous
 62
   163
370
    18
100
AcDbLine
 10
69.158401
 20
160.578562
 30
0.0
 11
78.856676
 21
168.816402
 31
0.0
  0
LINE
  5
199
330
1F
100
AcDbEntity
  8
1
  6
Continuous
 62
   163
370
    18
100
AcDbLine
 10
89.158401
 20
125.578562
 30
0.0
 11
72.658401
 21
125.578562
 31
0.0
  0
LINE
  5
19A
330
1F
100
AcDbEntity
  8
1
  6
Continuous
 62
   163
370
    18
100
AcDbLine
 10
55.658401
 20
130.578562
 30
0.0
 11
50.107514
 21
130.578562
 31
0.0
  0
LINE
  5
19B
330
1F
100
AcDbEntity
  8
1
  6
Continuous
 62
   163
370
    18
100
AcDbLine
 10
54.158401
 20
150.578562
 30
0.0
 11
54.158401
 21
145.578562
 31
0.0
  0
LINE
  5
19C
330
1F
100
AcDbEntity
  8
1
  6
Continuous
 62
   163
370
    18
100
AcDbLine
 10
44.158401
 20
159.078562
 30
0.0
 11
44.158401
 21
164.629449
 31
0.0
  0
LINE
  5
19D
330
1F
100
AcDbEntity
  8
1
  6
Continuous
 62
   163
370
    18
100
AcDbLine
 10
39.158401
 20
175.578562
 30
0.0
 11
55.658401
 21
175.578562
 31
0.0
  0
LINE
  5
19E
330
1F
100
AcDbEntity
  8
1
  6
Continuous
 62
   163
370
    18
100
AcDbLine
 10
71.658401
 20
171.578562
 30
0.0
 11
71.658401
 21
174.578562
 31
0.0
  0
LINE
  5
19F
330
1F
100
AcDbEntity
  8
1
  6
Continuous
 62
   163
370
    18
100
AcDbLine
 10
85.158401
 20
143.078562
 30
0.0
 11
88.158401
 21
143.078562
 31
0.0
  0
LINE
  5
1A0
330
1F
100
AcDbEntity
  8
1
  6
Continuous
 62
   163
370
    18
100
AcDbLine
 10
64.158401
 20
140.578562
 30
0.0
 11
59.158401
 21
140.578562
 31
0.0
  0
LINE
  5
1A1
330
1F
100
AcDbEntity
  8
1
  6
Continuous
 62
   163
370
    18
100
AcDbLine
 10
44.158401
 20
142.078562
 30
0.0
 11
44.158401
 21
136.527675
 31
0.0
  0
LINE
  5
1A2
330
1F
100
AcDbEntity
  8
1
  6
Continuous
 62
   163
370
    18
100
AcDbLine
 10
39.158401
 20
175.578562
 30
0.0
 11
39.158401
 21
159.078562
 31
0.0
  0
LINE
  5
1A3
330
1F
100
AcDbEntity
  8
1
  6
Continuous
 62
   163
370
    18
100
AcDbLine
 10
55.658401
 20
170.578562
 30
0.0
 11
50.107514
 21
170.578562
 31
0.0
  0
LINE
  5
1A4
330
1F
100
AcDbEntity
  8
1
  6
Continuous
 62
   163
370
    18
100
AcDbLine
 10
89.158401
 20
175.578562
 30
0.0
 11
89.158401
 21
159.078562
 31
0.0
  0
LINE
  5
1A5
330
1F
100
AcDbEntity
  8
1
  6
Continuous
 62
   163
370
    18
100
AcDbLine
 10
74.158401
 20
145.578562
 30
0.0
 11
82.396241
 21
135.880286
 31
0.0
  0
LINE
  5
1A6
330
1F
100
AcDbEntity
  8
1
  6
Continuous
 62
   163
370
    18
100
AcDbLine
 10
69.158401
 20
140.578562
 30
0.0
 11
78.856676
 21
132.340722
 31
0.0
  0
LINE
  5
1A7
330
1F
100
AcDbEntity
  8
1
  6
Continuous
 62
   163
370
    18
100
AcDbLine
 10
39.158401
 20
125.578562
 30
0.0
 11
39.158401
 21
142.078562
 31
0.0
  0
LINE
  5
1A8
330
1F
100
AcDbEntity
  8
256
  6
Continuous
 62
   163
370
    18
100
AcDbLine
 10
10.0
 20
287.0
 30
0.0
 11
200.0
 21
287.0
 31
0.0
  0
LINE
  5
1A9
330
1F
100
AcDbEntity
  8
256
  6
Continuous
 62
   163
370
    18
100
AcDbLine
 10
200.0
 20
287.0
 30
0.0
 11
200.0
 21
10.0
 31
0.0
  0
LINE
  5
1AA
330
1F
100
AcDbEntity
  8
256
  6
Continuous
 62
   163
370
    18
100
AcDbLine
 10
200.0
 20
10.0
 30
0.0
 11
10.0
 21
10.0
 31
0.0
  0
LINE
  5
1AB
330
1F
100
AcDbEntity
  8
256
  6
Continuous
 62
   163
370
    18
100
AcDbLine
 10
10.0
 20
10.0
 30
0.0
 11
10.0
 21
287.0
 31
0.0
  0
LINE
  5
1AC
102
{ACAD_REACTORS
330
32F
102
}
330
1F
100
AcDbEntity
  8
256
  6
Continuous
 62
   163
 60
     1
370
    18
100
AcDbLine
 10
86.658401
 20
143.078562
 30
0.0
 11
86.659401
 21
143.078562
 31
0.0
  0
LINE
  5
1AD
102
{ACAD_REACTORS
330
353
102
}
330
1F
100
AcDbEntity
  8
256
  6
Continuous
 62
   163
 60
     1
370
    18
100
AcDbLine
 10
47.908401
 20
175.578562
 30
0.0
 11
47.909401
 21
175.578562
 31
0.0
  0
LINE
  5
1AE
102
{ACAD_REACTORS
330
353
102
}
330
1F
100
AcDbEntity
  8
256
  6
Continuous
 62
   163
 60
     1
370
    18
100
AcDbLine
 10
47.908401
 20
125.578562
 30
0.0
 11
47.907401
 21
125.578562
 31
0.0
  0
LINE
  5
1AF
330
1F
100
AcDbEntity
  8
256
  6
Continuous
 62
   163
 60
     1
370
    18
100
AcDbLine
 10
83.300347
 20
175.578562
 30
0.0
 11
83.301347
 21
175.578562
 31
0.0
  0
LINE
  5
1B0
330
1F
100
AcDbEntity
  8
256
  6
Continuous
 62
   163
 60
     1
370
    18
100
AcDbLine
 10
54.405262
 20
125.578562
 30
0.0
 11
54.404262
 21
125.578562
 31
0.0
  0
LINE
  5
1B1
330
1F
100
AcDbEntity
  8
256
  6
Continuous
 62
   163
 60
     1
370
    18
100
AcDbLine
 10
52.882957
 20
130.578562
 30
0.0
 11
52.883957
 21
130.578562
 31
0.0
  0
LINE
  5
1B2
102
{ACAD_REACTORS
330
37F
102
}
330
1F
100
AcDbEntity
  8
256
  6
Continuous
 62
   163
 60
     1
370
    18
100
AcDbLine
 10
89.158401
 20
134.328562
 30
0.0
 11
89.158401
 21
134.327562
 31
0.0
  0
CIRCLE
  5
1B3
330
1F
100
AcDbEntity
  8
256
  6
Continuous
 62
   155
370
    18
100
AcDbCircle
 10
44.158401
 20
209.853622
 30
0.0
 40
1.25
  0
ARC
  5
1B4
330
1F
100
AcDbEntity
  8
256
  6
Continuous
 62
   155
370
    18
100
AcDbCircle
 10
39.358401
 20
214.653622
 30
0.0
 40
0.2
100
AcDbArc
 50
90.0
 51
180.0
  0
ARC
  5
1B5
330
1F
100
AcDbEntity
  8
256
  6
Continuous
 62
   155
370
    18
100
AcDbCircle
 10
48.958401
 20
214.653622
 30
0.0
 40
0.2
100
AcDbArc
 50
0.0
 51
90.0
  0
ARC
  5
1B6
330
1F
100
AcDbEntity
  8
256
  6
Continuous
 62
   155
370
    18
100
AcDbCircle
 10
48.958401
 20
205.053622
 30
0.0
 40
0.2
100
AcDbArc
 50
270.0
 51
0.0
  0
ARC
  5
1B7
330
1F
100
AcDbEntity
  8
256
  6
Continuous
 62
   155
370
    18
100
AcDbCircle
 10
39.358401
 20
205.053622
 30
0.0
 40
0.2
100
AcDbArc
 50
180.0
 51
270.0
  0
ARC
  5
1B8
330
1F
100
AcDbEntity
  8
256
  6
Continuous
 62
   155
370
    18
100
AcDbCircle
 10
-42.458401
 20
205.053622
 30
0.0
 40
0.1999999999999993
210
0.0
220
0.0
230
-1.0
100
AcDbArc
 50
180.0
 51
270.0
  0
ARC
  5
1B9
330
1F
100
AcDbEntity
  8
256
  6
Continuous
 62
   155
370
    18
100
AcDbCircle
 10
-42.458401
 20
205.653622
 30
0.0
 40
0.2000000000000011
210
0.0
220
0.0
230
-1.0
100
AcDbArc
 50
90.0
 51
180.0
  0
ARC
  5
1BA
330
1F
100
AcDbEntity
  8
256
  6
Continuous
 62
   155
370
    18
100
AcDbCircle
 10
41.348223
 20
206.053622
 30
0.0
 40
0.2000000000000008
100
AcDbArc
 50
130.345
 51
270.0
  0
ARC
  5
1BB
330
1F
100
AcDbEntity
  8
256
  6
Continuous
 62
   155
370
    18
100
AcDbCircle
 10
46.968578
 20
206.053622
 30
0.0
 40
0.2000000000000008
100
AcDbArc
 50
270.0
 51
49.655
  0
ARC
  5
1BC
330
1F
100
AcDbEntity
  8
256
  6
Continuous
 62
   155
370
    18
100
AcDbCircle
 10
-45.858401
 20
205.653622
 30
0.0
 40
0.2000000000000011
210
0.0
220
0.0
230
-1.0
100
AcDbArc
 50
360.0
 51
90.0
  0
ARC
  5
1BD
330
1F
100
AcDbEntity
  8
256
  6
Continuous
 62
   155
370
    18
100
AcDbCircle
 10
-45.858401
 20
205.053622
 30
0.0
 40
0.1999999999999993
210
0.0
220
0.0
230
-1.0
100
AcDbArc
 50
270.0
 51
360.0
  0
ARC
  5
1BE
330
1F
100
AcDbEntity
  8
256
  6
Continuous
 62
   155
370
    18
100
AcDbCircle
 10
-48.958401
 20
208.153622
 30
0.0
 40
0.1999999999999993
210
0.0
220
0.0
230
-1.0
100
AcDbArc
 50
90.0
 51
180.0
  0
ARC
  5
1BF
330
1F
100
AcDbEntity
  8
256
  6
Continuous
 62
   155
370
    18
100
AcDbCircle
 10
-48.358401
 20
208.153622
 30
0.0
 40
0.2000000000000011
210
0.0
220
0.0
230
-1.0
100
AcDbArc
 50
0.0
 51
90.0
  0
ARC
  5
1C0
330
1F
100
AcDbEntity
  8
256
  6
Continuous
 62
   155
370
    18
100
AcDbCircle
 10
47.958401
 20
207.043444
 30
0.0
 40
0.2000000000000001
100
AcDbArc
 50
220.345
 51
0.0
  0
ARC
  5
1C1
330
1F
100
AcDbEntity
  8
256
  6
Continuous
 62
   155
370
    18
100
AcDbCircle
 10
47.958401
 20
212.663799
 30
0.0
 40
0.2000000000000001
100
AcDbArc
 50
0.0
 51
139.655
  0
ARC
  5
1C2
330
1F
100
AcDbEntity
  8
256
  6
Continuous
 62
   155
370
    18
100
AcDbCircle
 10
-48.358401
 20
211.553622
 30
0.0
 40
0.2000000000000011
210
0.0
220
0.0
230
-1.0
100
AcDbArc
 50
270.0
 51
0.0
  0
ARC
  5
1C3
330
1F
100
AcDbEntity
  8
256
  6
Continuous
 62
   155
370
    18
100
AcDbCircle
 10
-48.958401
 20
211.553622
 30
0.0
 40
0.1999999999999993
210
0.0
220
0.0
230
-1.0
100
AcDbArc
 50
180.0
 51
270.0
  0
ARC
  5
1C4
330
1F
100
AcDbEntity
  8
256
  6
Continuous
 62
   155
370
    18
100
AcDbCircle
 10
-45.858401
 20
214.653622
 30
0.0
 40
0.1999999999999993
210
0.0
220
0.0
230
-1.0
100
AcDbArc
 50
0.0
 51
90.0
  0
ARC
  5
1C5
330
1F
100
AcDbEntity
  8
256
  6
Continuous
 62
   155
370
    18
100
AcDbCircle
 10
-45.858401
 20
214.053622
 30
0.0
 40
0.2000000000000011
210
0.0
220
0.0
230
-1.0
100
AcDbArc
 50
270.0
 51
0.0
  0
ARC
  5
1C6
330
1F
100
AcDbEntity
  8
256
  6
Continuous
 62
   155
370
    18
100
AcDbCircle
 10
46.968578
 20
213.653622
 30
0.0
 40
0.2000000000000008
100
AcDbArc
 50
310.345
 51
90.0
  0
ARC
  5
1C7
330
1F
100
AcDbEntity
  8
256
  6
Continuous
 62
   155
370
    18
100
AcDbCircle
 10
41.348223
 20
213.653622
 30
0.0
 40
0.2000000000000008
100
AcDbArc
 50
90.0
 51
229.655
  0
ARC
  5
1C8
330
1F
100
AcDbEntity
  8
256
  6
Continuous
 62
   155
370
    18
100
AcDbCircle
 10
-42.458401
 20
214.053622
 30
0.0
 40
0.2000000000000011
210
0.0
220
0.0
230
-1.0
100
AcDbArc
 50
180.0
 51
270.0
  0
ARC
  5
1C9
330
1F
100
AcDbEntity
  8
256
  6
Continuous
 62
   155
370
    18
100
AcDbCircle
 10
-42.458401
 20
214.653622
 30
0.0
 40
0.1999999999999993
210
0.0
220
0.0
230
-1.0
100
AcDbArc
 50
90.0
 51
180.0
  0
ARC
  5
1CA
330
1F
100
AcDbEntity
  8
256
  6
Continuous
 62
   155
370
    18
100
AcDbCircle
 10
-39.358401
 20
211.553622
 30
0.0
 40
0.1999999999999993
210
0.0
220
0.0
230
-1.0
100
AcDbArc
 50
270.0
 51
360.0
  0
ARC
  5
1CB
330
1F
100
AcDbEntity
  8
256
  6
Continuous
 62
   155
370
    18
100
AcDbCircle
 10
-39.958401
 20
211.553622
 30
0.0
 40
0.2000000000000011
210
0.0
220
0.0
230
-1.0
100
AcDbArc
 50
180.0
 51
270.0
  0
ARC
  5
1CC
330
1F
100
AcDbEntity
  8
256
  6
Continuous
 62
   155
370
    18
100
AcDbCircle
 10
40.358401
 20
212.663799
 30
0.0
 40
0.2000000000000001
100
AcDbArc
 50
40.345
 51
180.0
  0
ARC
  5
1CD
330
1F
100
AcDbEntity
  8
256
  6
Continuous
 62
   155
370
    18
100
AcDbCircle
 10
40.358401
 20
207.043444
 30
0.0
 40
0.2000000000000001
100
AcDbArc
 50
180.0
 51
319.655
  0
ARC
  5
1CE
330
1F
100
AcDbEntity
  8
256
  6
Continuous
 62
   155
370
    18
100
AcDbCircle
 10
-39.958401
 20
208.153622
 30
0.0
 40
0.2000000000000011
210
0.0
220
0.0
230
-1.0
100
AcDbArc
 50
90.0
 51
180.0
  0
ARC
  5
1CF
330
1F
100
AcDbEntity
  8
256
  6
Continuous
 62
   155
370
    18
100
AcDbCircle
 10
-39.358401
 20
208.153622
 30
0.0
 40
0.1999999999999993
210
0.0
220
0.0
230
-1.0
100
AcDbArc
 50
360.0
 51
90.0
  0
ARC
  5
1D0
330
1F
100
AcDbEntity
  8
1
  6
Continuous
 62
   163
370
    18
100
AcDbCircle
 10
48.358401
 20
208.153622
 30
0.0
 40
0.2000000000000011
100
AcDbArc
 50
90.0
 51
180.0
  0
ARC
  5
1D1
330
1F
100
AcDbEntity
  8
1
  6
Continuous
 62
   163
370
    18
100
AcDbCircle
 10
39.958401
 20
211.553622
 30
0.0
 40
0.2000000000000011
100
AcDbArc
 50
270.0
 51
0.0
  0
ARC
  5
1D2
330
1F
100
AcDbEntity
  8
1
  6
Continuous
 62
   163
370
    18
100
AcDbCircle
 10
45.858401
 20
214.053622
 30
0.0
 40
0.2000000000000011
100
AcDbArc
 50
180.0
 51
270.0
  0
ARC
  5
1D3
330
1F
100
AcDbEntity
  8
1
  6
Continuous
 62
   163
370
    18
100
AcDbCircle
 10
-47.958401
 20
212.663799
 30
0.0
 40
0.2000000000000001
210
0.0
220
0.0
230
-1.0
100
AcDbArc
 50
40.345
 51
180.0
  0
ARC
  5
1D4
330
1F
100
AcDbEntity
  8
1
  6
Continuous
 62
   163
370
    18
100
AcDbCircle
 10
-48.958401
 20
211.553622
 30
0.0
 40
0.1999999999999993
210
0.0
220
0.0
230
-1.0
100
AcDbArc
 50
180.0
 51
270.0
  0
ARC
  5
1D5
330
1F
100
AcDbEntity
  8
1
  6
Continuous
 62
   163
370
    18
100
AcDbCircle
 10
-46.968578
 20
206.053622
 30
0.0
 40
0.2000000000000008
210
0.0
220
0.0
230
-1.0
100
AcDbArc
 50
130.345
 51
270.0
  0
ARC
  5
1D6
330
1F
100
AcDbEntity
  8
1
  6
Continuous
 62
   163
370
    18
100
AcDbCircle
 10
39.358401
 20
211.553622
 30
0.0
 40
0.1999999999999993
100
AcDbArc
 50
180.0
 51
270.0
  0
ARC
  5
1D7
330
1F
100
AcDbEntity
  8
1
  6
Continuous
 62
   163
370
    18
100
AcDbCircle
 10
-39.958401
 20
208.153622
 30
0.0
 40
0.2000000000000011
210
0.0
220
0.0
230
-1.0
100
AcDbArc
 50
90.0
 51
180.0
  0
ARC
  5
1D8
330
1F
100
AcDbEntity
  8
1
  6
Continuous
 62
   163
370
    18
100
AcDbCircle
 10
48.958401
 20
208.153622
 30
0.0
 40
0.1999999999999993
100
AcDbArc
 50
0.0
 51
90.0
  0
ARC
  5
1D9
330
1F
100
AcDbEntity
  8
1
  6
Continuous
 62
   163
370
    18
100
AcDbCircle
 10
-42.458401
 20
214.053622
 30
0.0
 40
0.2000000000000011
210
0.0
220
0.0
230
-1.0
100
AcDbArc
 50
180.0
 51
270.0
  0
ARC
  5
1DA
330
1F
100
AcDbEntity
  8
1
  6
Continuous
 62
   163
370
    18
100
AcDbCircle
 10
-40.358401
 20
207.043444
 30
0.0
 40
0.2000000000000001
210
0.0
220
0.0
230
-1.0
100
AcDbArc
 50
220.345
 51
0.0
  0
ARC
  5
1DB
330
1F
100
AcDbEntity
  8
1
  6
Continuous
 62
   163
370
    18
100
AcDbCircle
 10
40.358401
 20
212.663799
 30
0.0
 40
0.2000000000000001
100
AcDbArc
 50
40.345
 51
180.0
  0
ARC
  5
1DC
330
1F
100
AcDbEntity
  8
1
  6
Continuous
 62
   163
370
    18
100
AcDbCircle
 10
47.958401
 20
207.043444
 30
0.0
 40
0.2000000000000001
100
AcDbArc
 50
220.345
 51
0.0
  0
ARC
  5
1DD
330
1F
100
AcDbEntity
  8
1
  6
Continuous
 62
   163
370
    18
100
AcDbCircle
 10
-39.358401
 20
208.153622
 30
0.0
 40
0.1999999999999993
210
0.0
220
0.0
230
-1.0
100
AcDbArc
 50
0.0
 51
90.0
  0
ARC
  5
1DE
330
1F
100
AcDbEntity
  8
1
  6
Continuous
 62
   163
370
    18
100
AcDbCircle
 10
-42.458401
 20
214.653622
 30
0.0
 40
0.1999999999999993
210
0.0
220
0.0
230
-1.0
100
AcDbArc
 50
90.0
 51
180.0
  0
CIRCLE
  5
1DF
330
1F
100
AcDbEntity
  8
1
  6
Continuous
 62
   163
370
    18
100
AcDbCircle
 10
44.158401
 20
209.853622
 30
0.0
 40
1.25
  0
ARC
  5
1E0
330
1F
100
AcDbEntity
  8
1
  6
Continuous
 62
   163
370
    18
100
AcDbCircle
 10
42.458401
 20
205.053622
 30
0.0
 40
0.1999999999999993
100
AcDbArc
 50
270.0
 51
360.0
  0
ARC
  5
1E1
330
1F
100
AcDbEntity
  8
1
  6
Continuous
 62
   163
370
    18
100
AcDbCircle
 10
45.858401
 20
214.653622
 30
0.0
 40
0.1999999999999993
100
AcDbArc
 50
90.0
 51
180.0
  0
ARC
  5
1E2
330
1F
100
AcDbEntity
  8
1
  6
Continuous
 62
   163
370
    18
100
AcDbCircle
 10
41.348223
 20
206.053622
 30
0.0
 40
0.2000000000000008
100
AcDbArc
 50
130.345
 51
270.0
  0
ARC
  5
1E3
330
1F
100
AcDbEntity
  8
1
  6
Continuous
 62
   163
370
    18
100
AcDbCircle
 10
46.968578
 20
213.653622
 30
0.0
 40
0.2000000000000008
100
AcDbArc
 50
310.345
 51
90.0
  0
ARC
  5
1E4
330
1F
100
AcDbEntity
  8
1
  6
Continuous
 62
   163
370
    18
100
AcDbCircle
 10
-48.358401
 20
211.553622
 30
0.0
 40
0.2000000000000011
210
0.0
220
0.0
230
-1.0
100
AcDbArc
 50
270.0
 51
0.0
  0
ARC
  5
1E5
330
1F
100
AcDbEntity
  8
1
  6
Continuous
 62
   163
370
    18
100
AcDbCircle
 10
-45.858401
 20
205.653622
 30
0.0
 40
0.2000000000000011
210
0.0
220
0.0
230
-1.0
100
AcDbArc
 50
0.0
 51
90.0
  0
ARC
  5
1E6
330
1F
100
AcDbEntity
  8
1
  6
Continuous
 62
   163
370
    18
100
AcDbCircle
 10
42.458401
 20
205.653622
 30
0.0
 40
0.2000000000000011
100
AcDbArc
 50
0.0
 51
90.0
  0
ARC
  5
1E7
330
1F
100
AcDbEntity
  8
1
  6
Continuous
 62
   163
370
    18
100
AcDbCircle
 10
-45.858401
 20
205.053622
 30
0.0
 40
0.1999999999999993
210
0.0
220
0.0
230
-1.0
100
AcDbArc
 50
270.0
 51
360.0
  0
ARC
  5
1E8
330
1F
100
AcDbEntity
  8
1
  6
Continuous
 62
   163
370
    18
100
AcDbCircle
 10
-41.348223
 20
213.653622
 30
0.0
 40
0.2000000000000008
210
0.0
220
0.0
230
-1.0
100
AcDbArc
 50
310.345
 51
90.0
  0
CIRCLE
  5
1E9
102
{ACAD_REACTORS
330
349
102
}
330
1F
100
AcDbEntity
  8
256
  6
Continuous
 62
   155
370
    18
100
AcDbCircle
 10
64.158401
 20
150.578562
 30
0.0
 40
6.25
  0
ARC
  5
1EA
330
1F
100
AcDbEntity
  8
256
  6
Continuous
 62
   155
370
    18
100
AcDbCircle
 10
88.158401
 20
126.578562
 30
0.0
 40
1.0
100
AcDbArc
 50
270.0
 51
0.0
  0
ARC
  5
1EB
330
1F
100
AcDbEntity
  8
256
  6
Continuous
 62
   155
370
    18
100
AcDbCircle
 10
88.158401
 20
174.578562
 30
0.0
 40
1.0
100
AcDbArc
 50
0.0
 51
90.0
  0
ARC
  5
1EC
330
1F
100
AcDbEntity
  8
256
  6
Continuous
 62
   155
370
    18
100
AcDbCircle
 10
40.158401
 20
126.578562
 30
0.0
 40
1.0
100
AcDbArc
 50
180.0
 51
270.0
  0
ARC
  5
1ED
330
1F
100
AcDbEntity
  8
256
  6
Continuous
 62
   155
370
    18
100
AcDbCircle
 10
40.158401
 20
174.578562
 30
0.0
 40
1.0
100
AcDbArc
 50
90.0
 51
180.0
  0
ARC
  5
1EE
330
1F
100
AcDbEntity
  8
256
  6
Continuous
 62
   155
370
    18
100
AcDbCircle
 10
-55.658401
 20
126.578562
 30
0.0
 40
0.9999999999999966
210
0.0
220
0.0
230
-1.0
100
AcDbArc
 50
180.0
 51
270.0
  0
ARC
  5
1EF
330
1F
100
AcDbEntity
  8
256
  6
Continuous
 62
   155
370
    18
100
AcDbCircle
 10
-55.658401
 20
129.578562
 30
0.0
 40
1.000000000000005
210
0.0
220
0.0
230
-1.0
100
AcDbArc
 50
90.0
 51
180.0
  0
ARC
  5
1F0
330
1F
100
AcDbEntity
  8
256
  6
Continuous
 62
   155
370
    18
100
AcDbCircle
 10
50.107514
 20
131.578562
 30
0.0
 40
1.000000000000004
100
AcDbArc
 50
130.345
 51
270.0
  0
ARC
  5
1F1
330
1F
100
AcDbEntity
  8
256
  6
Continuous
 62
   155
370
    18
100
AcDbCircle
 10
78.209288
 20
131.578562
 30
0.0
 40
1.000000000000004
100
AcDbArc
 50
270.0
 51
49.655
  0
ARC
  5
1F2
330
1F
100
AcDbEntity
  8
256
  6
Continuous
 62
   155
370
    18
100
AcDbCircle
 10
-72.658401
 20
129.578562
 30
0.0
 40
1.000000000000005
210
0.0
220
0.0
230
-1.0
100
AcDbArc
 50
360.0
 51
90.0
  0
ARC
  5
1F3
330
1F
100
AcDbEntity
  8
256
  6
Continuous
 62
   155
370
    18
100
AcDbCircle
 10
-72.658401
 20
126.578562
 30
0.0
 40
0.9999999999999966
210
0.0
220
0.0
230
-1.0
100
AcDbArc
 50
270.0
 51
360.0
  0
ARC
  5
1F4
330
1F
100
AcDbEntity
  8
256
  6
Continuous
 62
   155
370
    18
100
AcDbCircle
 10
-88.158401
 20
142.078562
 30
0.0
 40
0.9999999999999966
210
0.0
220
0.0
230
-1.0
100
AcDbArc
 50
90.0
 51
180.0
  0
ARC
  5
1F5
330
1F
100
AcDbEntity
  8
256
  6
Continuous
 62
   155
370
    18
100
AcDbCircle
 10
-85.158401
 20
142.078562
 30
0.0
 40
1.000000000000005
210
0.0
220
0.0
230
-1.0
100
AcDbArc
 50
0.0
 51
90.0
  0
ARC
  5
1F6
330
1F
100
AcDbEntity
  8
256
  6
Continuous
 62
   155
370
    18
100
AcDbCircle
 10
83.158401
 20
136.527675
 30
0.0
 40
1.000000000000001
100
AcDbArc
 50
220.345
 51
0.0
  0
ARC
  5
1F7
330
1F
100
AcDbEntity
  8
256
  6
Continuous
 62
   155
370
    18
100
AcDbCircle
 10
83.158401
 20
164.629449
 30
0.0
 40
1.000000000000001
100
AcDbArc
 50
0.0
 51
139.655
  0
ARC
  5
1F8
330
1F
100
AcDbEntity
  8
256
  6
Continuous
 62
   155
370
    18
100
AcDbCircle
 10
-85.158401
 20
159.078562
 30
0.0
 40
1.000000000000005
210
0.0
220
0.0
230
-1.0
100
AcDbArc
 50
270.0
 51
0.0
  0
ARC
  5
1F9
330
1F
100
AcDbEntity
  8
256
  6
Continuous
 62
   155
370
    18
100
AcDbCircle
 10
-88.158401
 20
159.078562
 30
0.0
 40
0.9999999999999966
210
0.0
220
0.0
230
-1.0
100
AcDbArc
 50
180.0
 51
270.0
  0
ARC
  5
1FA
330
1F
100
AcDbEntity
  8
256
  6
Continuous
 62
   155
370
    18
100
AcDbCircle
 10
-72.658401
 20
174.578562
 30
0.0
 40
0.9999999999999966
210
0.0
220
0.0
230
-1.0
100
AcDbArc
 50
0.0
 51
90.0
  0
ARC
  5
1FB
330
1F
100
AcDbEntity
  8
256
  6
Continuous
 62
   155
370
    18
100
AcDbCircle
 10
-72.658401
 20
171.578562
 30
0.0
 40
1.000000000000005
210
0.0
220
0.0
230
-1.0
100
AcDbArc
 50
270.0
 51
0.0
  0
ARC
  5
1FC
330
1F
100
AcDbEntity
  8
256
  6
Continuous
 62
   155
370
    18
100
AcDbCircle
 10
78.209288
 20
169.578562
 30
0.0
 40
1.000000000000004
100
AcDbArc
 50
310.345
 51
90.0
  0
ARC
  5
1FD
330
1F
100
AcDbEntity
  8
256
  6
Continuous
 62
   155
370
    18
100
AcDbCircle
 10
50.107514
 20
169.578562
 30
0.0
 40
1.000000000000004
100
AcDbArc
 50
90.0
 51
229.655
  0
ARC
  5
1FE
330
1F
100
AcDbEntity
  8
256
  6
Continuous
 62
   155
370
    18
100
AcDbCircle
 10
-55.658401
 20
171.578562
 30
0.0
 40
1.000000000000005
210
0.0
220
0.0
230
-1.0
100
AcDbArc
 50
180.0
 51
270.0
  0
ARC
  5
1FF
330
1F
100
AcDbEntity
  8
256
  6
Continuous
 62
   155
370
    18
100
AcDbCircle
 10
-55.658401
 20
174.578562
 30
0.0
 40
0.9999999999999966
210
0.0
220
0.0
230
-1.0
100
AcDbArc
 50
90.0
 51
180.0
  0
ARC
  5
200
330
1F
100
AcDbEntity
  8
256
  6
Continuous
 62
   155
370
    18
100
AcDbCircle
 10
-40.158401
 20
159.078562
 30
0.0
 40
0.9999999999999966
210
0.0
220
0.0
230
-1.0
100
AcDbArc
 50
270.0
 51
360.0
  0
ARC
  5
201
330
1F
100
AcDbEntity
  8
256
  6
Continuous
 62
   155
370
    18
100
AcDbCircle
 10
-43.158401
 20
159.078562
 30
0.0
 40
1.000000000000005
210
0.0
220
0.0
230
-1.0
100
AcDbArc
 50
180.0
 51
270.0
  0
ARC
  5
202
330
1F
100
AcDbEntity
  8
256
  6
Continuous
 62
   155
370
    18
100
AcDbCircle
 10
45.158401
 20
164.629449
 30
0.0
 40
1.000000000000001
100
AcDbArc
 50
40.345
 51
180.0
  0
ARC
  5
203
330
1F
100
AcDbEntity
  8
256
  6
Continuous
 62
   155
370
    18
100
AcDbCircle
 10
45.158401
 20
136.527675
 30
0.0
 40
1.000000000000001
100
AcDbArc
 50
180.0
 51
319.655
  0
ARC
  5
204
330
1F
100
AcDbEntity
  8
256
  6
Continuous
 62
   155
370
    18
100
AcDbCircle
 10
-43.158401
 20
142.078562
 30
0.0
 40
1.000000000000005
210
0.0
220
0.0
230
-1.0
100
AcDbArc
 50
90.0
 51
180.0
  0
ARC
  5
205
330
1F
100
AcDbEntity
  8
256
  6
Continuous
 62
   155
370
    18
100
AcDbCircle
 10
-40.158401
 20
142.078562
 30
0.0
 40
0.9999999999999966
210
0.0
220
0.0
230
-1.0
100
AcDbArc
 50
360.0
 51
90.0
  0
ARC
  5
206
330
1F
100
AcDbEntity
  8
1
  6
Continuous
 62
   163
370
    18
100
AcDbCircle
 10
85.158401
 20
142.078562
 30
0.0
 40
1.000000000000005
100
AcDbArc
 50
90.0
 51
180.0
  0
ARC
  5
207
330
1F
100
AcDbEntity
  8
1
  6
Continuous
 62
   163
370
    18
100
AcDbCircle
 10
43.158401
 20
159.078562
 30
0.0
 40
1.000000000000005
100
AcDbArc
 50
270.0
 51
0.0
  0
ARC
  5
208
330
1F
100
AcDbEntity
  8
1
  6
Continuous
 62
   163
370
    18
100
AcDbCircle
 10
72.658401
 20
171.578562
 30
0.0
 40
1.000000000000005
100
AcDbArc
 50
180.0
 51
270.0
  0
ARC
  5
209
330
1F
100
AcDbEntity
  8
1
  6
Continuous
 62
   163
370
    18
100
AcDbCircle
 10
-83.158401
 20
164.629449
 30
0.0
 40
1.000000000000001
210
0.0
220
0.0
230
-1.0
100
AcDbArc
 50
40.345
 51
180.0
  0
ARC
  5
20A
330
1F
100
AcDbEntity
  8
1
  6
Continuous
 62
   163
370
    18
100
AcDbCircle
 10
-88.158401
 20
159.078562
 30
0.0
 40
0.9999999999999964
210
0.0
220
0.0
230
-1.0
100
AcDbArc
 50
180.0
 51
270.0
  0
ARC
  5
20B
330
1F
100
AcDbEntity
  8
1
  6
Continuous
 62
   163
370
    18
100
AcDbCircle
 10
-78.209288
 20
131.578562
 30
0.0
 40
1.000000000000004
210
0.0
220
0.0
230
-1.0
100
AcDbArc
 50
130.345
 51
270.0
  0
ARC
  5
20C
330
1F
100
AcDbEntity
  8
1
  6
Continuous
 62
   163
370
    18
100
AcDbCircle
 10
40.158401
 20
159.078562
 30
0.0
 40
0.9999999999999964
100
AcDbArc
 50
180.0
 51
270.0
  0
ARC
  5
20D
330
1F
100
AcDbEntity
  8
1
  6
Continuous
 62
   163
370
    18
100
AcDbCircle
 10
-43.158401
 20
142.078562
 30
0.0
 40
1.000000000000005
210
0.0
220
0.0
230
-1.0
100
AcDbArc
 50
90.0
 51
180.0
  0
ARC
  5
20E
330
1F
100
AcDbEntity
  8
1
  6
Continuous
 62
   163
370
    18
100
AcDbCircle
 10
88.158401
 20
142.078562
 30
0.0
 40
0.9999999999999964
100
AcDbArc
 50
0.0
 51
90.0
  0
ARC
  5
20F
330
1F
100
AcDbEntity
  8
1
  6
Continuous
 62
   163
370
    18
100
AcDbCircle
 10
-55.658401
 20
171.578562
 30
0.0
 40
1.000000000000005
210
0.0
220
0.0
230
-1.0
100
AcDbArc
 50
180.0
 51
270.0
  0
ARC
  5
210
330
1F
100
AcDbEntity
  8
1
  6
Continuous
 62
   163
370
    18
100
AcDbCircle
 10
-45.158401
 20
136.527675
 30
0.0
 40
1.000000000000001
210
0.0
220
0.0
230
-1.0
100
AcDbArc
 50
220.345
 51
0.0
  0
ARC
  5
211
330
1F
100
AcDbEntity
  8
1
  6
Continuous
 62
   163
370
    18
100
AcDbCircle
 10
45.158401
 20
164.629449
 30
0.0
 40
1.000000000000001
100
AcDbArc
 50
40.345
 51
180.0
  0
ARC
  5
212
330
1F
100
AcDbEntity
  8
1
  6
Continuous
 62
   163
370
    18
100
AcDbCircle
 10
83.158401
 20
136.527675
 30
0.0
 40
1.000000000000001
100
AcDbArc
 50
220.345
 51
0.0
  0
ARC
  5
213
330
1F
100
AcDbEntity
  8
1
  6
Continuous
 62
   163
370
    18
100
AcDbCircle
 10
-40.158401
 20
142.078562
 30
0.0
 40
0.9999999999999964
210
0.0
220
0.0
230
-1.0
100
AcDbArc
 50
0.0
 51
90.0
  0
ARC
  5
214
330
1F
100
AcDbEntity
  8
1
  6
Continuous
 62
   163
370
    18
100
AcDbCircle
 10
-55.658401
 20
174.578562
 30
0.0
 40
0.9999999999999964
210
0.0
220
0.0
230
-1.0
100
AcDbArc
 50
90.0
 51
180.0
  0
CIRCLE
  5
215
330
1F
100
AcDbEntity
  8
1
  6
Continuous
 62
   163
370
    18
100
AcDbCircle
 10
64.158401
 20
150.578562
 30
0.0
 40
6.25
  0
ARC
  5
216
330
1F
100
AcDbEntity
  8
1
  6
Continuous
 62
   163
370
    18
100
AcDbCircle
 10
55.658401
 20
126.578562
 30
0.0
 40
0.9999999999999964
100
AcDbArc
 50
270.0
 51
360.0
  0
ARC
  5
217
330
1F
100
AcDbEntity
  8
1
  6
Continuous
 62
   163
370
    18
100
AcDbCircle
 10
72.658401
 20
174.578562
 30
0.0
 40
0.9999999999999964
100
AcDbArc
 50
90.0
 51
180.0
  0
ARC
  5
218
330
1F
100
AcDbEntity
  8
1
  6
Continuous
 62
   163
370
    18
100
AcDbCircle
 10
50.107514
 20
131.578562
 30
0.0
 40
1.000000000000004
100
AcDbArc
 50
130.345
 51
270.0
  0
ARC
  5
219
330
1F
100
AcDbEntity
  8
1
  6
Continuous
 62
   163
370
    18
100
AcDbCircle
 10
78.209288
 20
169.578562
 30
0.0
 40
1.000000000000004
100
AcDbArc
 50
310.345
 51
90.0
  0
ARC
  5
21A
330
1F
100
AcDbEntity
  8
1
  6
Continuous
 62
   163
370
    18
100
AcDbCircle
 10
-85.158401
 20
159.078562
 30
0.0
 40
1.000000000000005
210
0.0
220
0.0
230
-1.0
100
AcDbArc
 50
270.0
 51
0.0
  0
ARC
  5
21B
330
1F
100
AcDbEntity
  8
1
  6
Continuous
 62
   163
370
    18
100
AcDbCircle
 10
-72.658401
 20
129.578562
 30
0.0
 40
1.000000000000005
210
0.0
220
0.0
230
-1.0
100
AcDbArc
 50
0.0
 51
90.0
  0
ARC
  5
21C
330
1F
100
AcDbEntity
  8
1
  6
Continuous
 62
   163
370
    18
100
AcDbCircle
 10
55.658401
 20
129.578562
 30
0.0
 40
1.000000000000005
100
AcDbArc
 50
0.0
 51
90.0
  0
ARC
  5
21D
330
1F
100
AcDbEntity
  8
1
  6
Continuous
 62
   163
370
    18
100
AcDbCircle
 10
-72.658401
 20
126.578562
 30
0.0
 40
0.9999999999999964
210
0.0
220
0.0
230
-1.0
100
AcDbArc
 50
270.0
 51
360.0
  0
ARC
  5
21E
330
1F
100
AcDbEntity
  8
1
  6
Continuous
 62
   163
370
    18
100
AcDbCircle
 10
-50.107514
 20
169.578562
 30
0.0
 40
1.000000000000004
210
0.0
220
0.0
230
-1.0
100
AcDbArc
 50
310.345
 51
90.0
  0
ELLIPSE
  5
21F
330
1F
100
AcDbEntity
  8
256
  6
Continuous
 62
   155
370
    18
100
AcDbEllipse
 10
164.330617
 20
241.004805
 30
0.0
 11
3.469446951953614E-17
 21
1.25
 31
-6.938893903907227E-17
210
-1.710569414459005E-49
220
5.551115123125781E-17
230
1.0
 40
0.57735
 41
0.0
 42
6.283185307179586
  0
ELLIPSE
  5
220
330
1F
100
AcDbEntity
  8
256
  6
Continuous
 62
   155
370
    18
100
AcDbEllipse
 10
161.399735
 20
240.605063
 30
0.0
 11
-5.551115123125762E-18
 21
-0.1999999999999993
 31
1.110223024625152E-17
210
-1.710569414459005E-49
220
5.551115123125781E-17
230
1.0
 40
0.57735
 41
2.879793265790611
 42
4.450589592585487
  0
ELLIPSE
  5
221
330
1F
100
AcDbEntity
  8
256
  6
Continuous
 62
   155
370
    18
100
AcDbEllipse
 10
161.734342
 20
240.449771
 30
0.0
 11
-5.551115123125811E-18
 21
-0.2000000000000011
 31
1.110223024625162E-17
210
1.710569414459005E-49
220
5.551115123125781E-17
230
1.0
 40
0.57735
 41
1.308996938995727
 42
2.879793265790616
  0
ELLIPSE
  5
222
330
1F
100
AcDbEntity
  8
256
  6
Continuous
 62
   155
370
    18
100
AcDbEllipse
 10
161.79152
 20
239.273895
 30
0.0
 11
5.551115123125785E-18
 21
0.2000000000000001
 31
-1.110223024625157E-17
210
1.710569414459005E-49
220
5.551115123125781E-17
230
1.0
 40
0.57735
 41
1.308996938995773
 42
3.746436505868402
  0
ELLIPSE
  5
223
330
1F
100
AcDbEntity
  8
256
  6
Continuous
 62
   155
370
    18
100
AcDbEllipse
 10
162.631365
 20
244.70274
 30
0.0
 11
5.551115123125785E-18
 21
0.2000000000000001
 31
-1.110223024625157E-17
210
1.710569414459005E-49
220
5.551115123125781E-17
230
1.0
 40
0.57735
 41
5.154742679302613
 42
7.592182246175353
  0
ELLIPSE
  5
224
330
1F
100
AcDbEntity
  8
256
  6
Continuous
 62
   155
370
    18
100
AcDbEllipse
 10
162.242401
 20
243.733919
 30
0.0
 11
-5.551115123125811E-18
 21
-0.2000000000000011
 31
1.110223024625162E-17
210
1.710569414459005E-49
220
5.551115123125781E-17
230
1.0
 40
0.57735
 41
6.021385919380529
 42
7.592182246175327
  0
ELLIPSE
  5
225
330
1F
100
AcDbEntity
  8
256
  6
Continuous
 62
   155
370
    18
100
AcDbEllipse
 10
161.907795
 20
243.88921
 30
0.0
 11
-5.551115123125762E-18
 21
-0.1999999999999993
 31
1.110223024625152E-17
210
-1.710569414459005E-49
220
5.551115123125781E-17
230
1.0
 40
0.57735
 41
4.450589592585542
 42
6.021385919380522
  0
ELLIPSE
  5
226
330
1F
100
AcDbEntity
  8
256
  6
Continuous
 62
   155
370
    18
100
AcDbEllipse
 10
162.371025
 20
246.883581
 30
0.0
 11
5.551115123125781E-18
 21
0.2
 31
-1.110223024625156E-17
210
1.710569414459005E-49
220
5.551115123125781E-17
230
1.0
 40
0.57735
 41
6.021385919380532
 42
7.592182246175287
  0
ELLIPSE
  5
227
330
1F
100
AcDbEntity
  8
256
  6
Continuous
 62
   155
370
    18
100
AcDbEllipse
 10
164.099826
 20
246.081241
 30
0.0
 11
-5.551115123125762E-18
 21
-0.1999999999999993
 31
1.110223024625152E-17
210
-1.710569414459005E-49
220
5.551115123125781E-17
230
1.0
 40
0.57735
 41
1.308996938995744
 42
2.879793265790611
  0
ELLIPSE
  5
228
330
1F
100
AcDbEntity
  8
256
  6
Continuous
 62
   155
370
    18
100
AcDbEllipse
 10
164.010168
 20
245.501686
 30
0.0
 11
-5.551115123125811E-18
 21
-0.2000000000000011
 31
1.110223024625162E-17
210
1.710569414459005E-49
220
5.551115123125781E-17
230
1.0
 40
0.57735
 41
6.021385919380404
 42
7.592182246175304
  0
ELLIPSE
  5
229
330
1F
100
AcDbEntity
  8
256
  6
Continuous
 62
   155
370
    18
100
AcDbEllipse
 10
163.331275
 20
245.402651
 30
0.0
 11
5.551115123125802E-18
 21
0.2000000000000008
 31
-1.110223024625160E-17
210
1.710569414459005E-49
220
5.551115123125781E-17
230
1.0
 40
0.57735
 41
6.021385919380525
 42
8.458825486253055
  0
ELLIPSE
  5
22A
330
1F
100
AcDbEntity
  8
256
  6
Continuous
 62
   155
370
    18
100
AcDbEllipse
 10
166.465621
 20
243.947996
 30
0.0
 11
5.551115123125802E-18
 21
0.2000000000000008
 31
-1.110223024625160E-17
210
1.710569414459005E-49
220
5.551115123125781E-17
230
1.0
 40
0.57735
 41
3.583946352507733
 42
6.021385919380406
  0
ELLIPSE
  5
22B
330
1F
100
AcDbEntity
  8
256
  6
Continuous
 62
   155
370
    18
100
AcDbEllipse
 10
165.906272
 20
244.621701
 30
0.0
 11
-5.551115123125811E-18
 21
-0.2000000000000011
 31
1.110223024625162E-17
210
1.710569414459005E-49
220
5.551115123125781E-17
230
1.0
 40
0.57735
 41
4.450589592585566
 42
6.021385919380285
  0
ELLIPSE
  5
22C
330
1F
100
AcDbEntity
  8
256
  6
Continuous
 62
   155
370
    18
100
AcDbEllipse
 10
165.995929
 20
245.201257
 30
0.0
 11
-5.551115123125762E-18
 21
-0.1999999999999993
 31
1.110223024625152E-17
210
-1.710569414459005E-49
220
5.551115123125781E-17
230
1.0
 40
0.57735
 41
2.879793265790735
 42
4.450589592585542
  0
ELLIPSE
  5
22D
330
1F
100
AcDbEntity
  8
256
  6
Continuous
 62
   155
370
    18
100
AcDbEllipse
 10
167.72473
 20
244.398918
 30
0.0
 11
5.551115123125781E-18
 21
0.2
 31
-1.110223024625156E-17
210
1.710569414459005E-49
220
5.551115123125781E-17
230
1.0
 40
0.57735
 41
4.450589592585542
 42
6.021385919380409
  0
ELLIPSE
  5
22E
330
1F
100
AcDbEntity
  8
256
  6
Continuous
 62
   155
370
    18
100
AcDbEllipse
 10
167.261499
 20
241.404548
 30
0.0
 11
-5.551115123125762E-18
 21
-0.1999999999999993
 31
1.110223024625152E-17
210
-1.710569414459005E-49
220
5.551115123125781E-17
230
1.0
 40
0.57735
 41
6.021385919380406
 42
7.592182246175312
  0
ELLIPSE
  5
22F
330
1F
100
AcDbEntity
  8
256
  6
Continuous
 62
   155
370
    18
100
AcDbEllipse
 10
166.926892
 20
241.559839
 30
0.0
 11
-5.551115123125811E-18
 21
-0.2000000000000011
 31
1.110223024625162E-17
210
1.710569414459005E-49
220
5.551115123125781E-17
230
1.0
 40
0.57735
 41
4.450589592585574
 42
6.021385919380409
  0
ELLIPSE
  5
230
330
1F
100
AcDbEntity
  8
256
  6
Continuous
 62
   155
370
    18
100
AcDbEllipse
 10
166.869714
 20
242.735716
 30
0.0
 11
5.551115123125785E-18
 21
0.2000000000000001
 31
-1.110223024625157E-17
210
1.710569414459005E-49
220
5.551115123125781E-17
230
1.0
 40
0.57735
 41
4.450589592585528
 42
6.888029159458191
  0
ELLIPSE
  5
231
330
1F
100
AcDbEntity
  8
256
  6
Continuous
 62
   155
370
    18
100
AcDbEllipse
 10
166.029869
 20
237.30687
 30
0.0
 11
5.551115123125785E-18
 21
0.2000000000000001
 31
-1.110223024625157E-17
210
1.710569414459005E-49
220
5.551115123125781E-17
230
1.0
 40
0.57735
 41
2.013150025712888
 42
4.450589592585542
  0
ELLIPSE
  5
232
330
1F
100
AcDbEntity
  8
256
  6
Continuous
 62
   155
370
    18
100
AcDbEllipse
 10
166.418833
 20
238.275691
 30
0.0
 11
-5.551115123125811E-18
 21
-0.2000000000000011
 31
1.110223024625162E-17
210
1.710569414459005E-49
220
5.551115123125781E-17
230
1.0
 40
0.57735
 41
2.879793265790494
 42
4.450589592585511
  0
ELLIPSE
  5
233
330
1F
100
AcDbEntity
  8
256
  6
Continuous
 62
   155
370
    18
100
AcDbEllipse
 10
166.753439
 20
238.1204
 30
0.0
 11
-5.551115123125762E-18
 21
-0.1999999999999993
 31
1.110223024625152E-17
210
-1.710569414459005E-49
220
5.551115123125781E-17
230
1.0
 40
0.57735
 41
1.308996938995741
 42
2.879793265790611
  0
ELLIPSE
  5
234
330
1F
100
AcDbEntity
  8
256
  6
Continuous
 62
   155
370
    18
100
AcDbEllipse
 10
166.290209
 20
235.12603
 30
0.0
 11
5.551115123125781E-18
 21
0.2
 31
-1.110223024625156E-17
210
1.710569414459005E-49
220
5.551115123125781E-17
230
1.0
 40
0.57735
 41
2.879793265790733
 42
4.450589592585566
  0
ELLIPSE
  5
235
330
1F
100
AcDbEntity
  8
256
  6
Continuous
 62
   155
370
    18
100
AcDbEllipse
 10
164.561408
 20
235.928369
 30
0.0
 11
-5.551115123125762E-18
 21
-0.1999999999999993
 31
1.110223024625152E-17
210
-1.710569414459005E-49
220
5.551115123125781E-17
230
1.0
 40
0.57735
 41
4.450589592585533
 42
6.021385919380406
  0
ELLIPSE
  5
236
330
1F
100
AcDbEntity
  8
256
  6
Continuous
 62
   155
370
    18
100
AcDbEllipse
 10
164.651066
 20
236.507924
 30
0.0
 11
-5.551115123125811E-18
 21
-0.2000000000000011
 31
1.110223024625162E-17
210
1.710569414459005E-49
220
5.551115123125781E-17
230
1.0
 40
0.57735
 41
2.879793265790733
 42
4.450589592585583
  0
ELLIPSE
  5
237
330
1F
100
AcDbEntity
  8
256
  6
Continuous
 62
   155
370
    18
100
AcDbEllipse
 10
165.329959
 20
236.60696
 30
0.0
 11
5.551115123125802E-18
 21
0.2000000000000008
 31
-1.110223024625160E-17
210
1.710569414459005E-49
220
5.551115123125781E-17
230
1.0
 40
0.57735
 41
2.879793265790494
 42
5.317232832663328
  0
ELLIPSE
  5
238
330
1F
100
AcDbEntity
  8
256
  6
Continuous
 62
   155
370
    18
100
AcDbEllipse
 10
162.195613
 20
238.061614
 30
0.0
 11
5.551115123125802E-18
 21
0.2000000000000008
 31
-1.110223024625160E-17
210
1.710569414459005E-49
220
5.551115123125781E-17
230
1.0
 40
0.57735
 41
0.442353698918059
 42
2.879793265790618
  0
ELLIPSE
  5
239
330
1F
100
AcDbEntity
  8
256
  6
Continuous
 62
   155
370
    18
100
AcDbEllipse
 10
162.754962
 20
237.387909
 30
0.0
 11
-5.551115123125811E-18
 21
-0.2000000000000011
 31
1.110223024625162E-17
210
1.710569414459005E-49
220
5.551115123125781E-17
230
1.0
 40
0.57735
 41
1.308996938995735
 42
2.879793265790735
  0
ELLIPSE
  5
23A
330
1F
100
AcDbEntity
  8
256
  6
Continuous
 62
   155
370
    18
100
AcDbEllipse
 10
162.665305
 20
236.808354
 30
0.0
 11
-5.551115123125762E-18
 21
-0.1999999999999993
 31
1.110223024625152E-17
210
-1.710569414459005E-49
220
5.551115123125781E-17
230
1.0
 40
0.57735
 41
6.021385919380404
 42
7.592182246175321
  0
ELLIPSE
  5
23B
330
1F
100
AcDbEntity
  8
256
  6
Continuous
 62
   155
370
    18
100
AcDbEllipse
 10
160.936504
 20
237.610693
 30
0.0
 11
5.551115123125781E-18
 21
0.2
 31
-1.110223024625156E-17
210
1.710569414459005E-49
220
5.551115123125781E-17
230
1.0
 40
0.57735
 41
1.30899693899575
 42
2.879793265790613
  0
ELLIPSE
  5
23C
330
1F
100
AcDbEntity
  8
256
  6
Continuous
 62
   155
370
    18
100
AcDbEllipse
 10
79.286846
 20
237.610693
 30
0.0
 11
-5.551115123125781E-18
 21
-0.2
 31
1.110223024625156E-17
210
1.710569414459005E-49
220
5.551115123125781E-17
230
1.0
 40
0.57735
 41
4.450589592585538
 42
6.021385919380439
  0
ELLIPSE
  5
23D
330
1F
100
AcDbEntity
  8
256
  6
Continuous
 62
   155
370
    18
100
AcDbEllipse
 10
79.750077
 20
240.605063
 30
0.0
 11
-5.551115123125762E-18
 21
-0.1999999999999993
 31
1.110223024625152E-17
210
-1.710569414459005E-49
220
5.551115123125781E-17
230
1.0
 40
0.57735
 41
3.141604030562177
 42
4.450589592585541
  0
ELLIPSE
  5
23E
330
1F
100
AcDbEntity
  8
256
  6
Continuous
 62
   155
370
    18
100
AcDbEllipse
 10
80.258136
 20
243.88921
 30
0.0
 11
-5.551115123125762E-18
 21
-0.1999999999999993
 31
1.110223024625152E-17
210
-1.710569414459005E-49
220
5.551115123125781E-17
230
1.0
 40
0.57735
 41
4.450589592585541
 42
6.021385919380437
  0
ELLIPSE
  5
23F
330
1F
100
AcDbEntity
  8
256
  6
Continuous
 62
   155
370
    18
100
AcDbEllipse
 10
80.592743
 20
243.733919
 30
0.0
 11
-5.551115123125811E-18
 21
-0.2000000000000011
 31
1.110223024625162E-17
210
1.710569414459005E-49
220
5.551115123125781E-17
230
1.0
 40
0.57735
 41
6.021385919380436
 42
6.283193084975175
  0
ELLIPSE
  5
240
330
1F
100
AcDbEntity
  8
256
  6
Continuous
 62
   155
370
    18
100
AcDbEllipse
 10
80.721367
 20
246.883581
 30
0.0
 11
-5.551115123125781E-18
 21
-0.2
 31
1.110223024625156E-17
210
1.710569414459005E-49
220
5.551115123125781E-17
230
1.0
 40
0.57735
 41
3.14160403056219
 42
4.450589592585537
  0
ELLIPSE
  5
241
330
1F
100
AcDbEntity
  8
256
  6
Continuous
 62
   155
370
    18
100
AcDbEllipse
 10
81.015647
 20
236.808354
 30
0.0
 11
-5.551115123125762E-18
 21
-0.1999999999999993
 31
1.110223024625152E-17
210
-1.710569414459005E-49
220
5.551115123125781E-17
230
1.0
 40
0.57735
 41
6.021385919380439
 42
6.283193084975177
  0
ELLIPSE
  5
242
330
1F
100
AcDbEntity
  8
256
  6
Continuous
 62
   155
370
    18
100
AcDbEllipse
 10
82.91175
 20
235.928369
 30
0.0
 11
-5.551115123125762E-18
 21
-0.1999999999999993
 31
1.110223024625152E-17
210
-1.710569414459005E-49
220
5.551115123125781E-17
230
1.0
 40
0.57735
 41
4.450589592585553
 42
6.021385919380437
  0
ELLIPSE
  5
243
330
1F
100
AcDbEntity
  8
256
  6
Continuous
 62
   155
370
    18
100
AcDbEllipse
 10
84.640551
 20
235.12603
 30
0.0
 11
-5.551115123125781E-18
 21
-0.2
 31
1.110223024625156E-17
210
1.710569414459005E-49
220
5.551115123125781E-17
230
1.0
 40
0.57735
 41
6.021385919380439
 42
6.283193084975177
  0
ELLIPSE
  5
244
330
1F
100
AcDbEntity
  8
256
  6
Continuous
 62
   155
370
    18
100
AcDbEllipse
 10
83.001408
 20
236.507924
 30
0.0
 11
-5.551115123125811E-18
 21
-0.2000000000000011
 31
1.110223024625162E-17
210
1.710569414459005E-49
220
5.551115123125781E-17
230
1.0
 40
0.57735
 41
4.186305637807442
 42
4.450589592585541
  0
ELLIPSE
  5
245
330
1F
100
AcDbEntity
  8
1
  6
Continuous
 62
   163
370
    18
100
AcDbEllipse
 10
84.769175
 20
238.275691
 30
0.0
 11
5.551115123125811E-18
 21
0.2000000000000011
 31
-1.110223024625162E-17
210
1.710569414459005E-49
220
5.551115123125781E-17
230
1.0
 40
0.57735
 41
6.021385919380436
 42
7.592182246175335
  0
ELLIPSE
  5
246
330
1F
100
AcDbEntity
  8
1
  6
Continuous
 62
   163
370
    18
100
AcDbEllipse
 10
80.592743
 20
243.733919
 30
0.0
 11
5.551115123125811E-18
 21
0.2000000000000011
 31
-1.110223024625162E-17
210
1.710569414459005E-49
220
5.551115123125781E-17
230
1.0
 40
0.57735
 41
2.879793265790644
 42
4.450589592585541
  0
ELLIPSE
  5
247
330
1F
100
AcDbEntity
  8
1
  6
Continuous
 62
   163
370
    18
100
AcDbEllipse
 10
84.256614
 20
244.621701
 30
0.0
 11
5.551115123125811E-18
 21
0.2000000000000011
 31
-1.110223024625162E-17
210
1.710569414459005E-49
220
5.551115123125781E-17
230
1.0
 40
0.57735
 41
1.308996938995747
 42
2.879793265790644
  0
ELLIPSE
  5
248
330
1F
100
AcDbEntity
  8
1
  6
Continuous
 62
   163
370
    18
100
AcDbEllipse
 10
85.220056
 20
242.735716
 30
0.0
 11
-5.551115123125785E-18
 21
-0.2000000000000001
 31
1.110223024625157E-17
210
1.710569414459005E-49
220
5.551115123125781E-17
230
1.0
 40
0.57735
 41
1.308996938995748
 42
3.746436505868426
  0
ELLIPSE
  5
249
330
1F
100
AcDbEntity
  8
1
  6
Continuous
 62
   163
370
    18
100
AcDbEllipse
 10
85.611841
 20
241.404548
 30
0.0
 11
-5.551115123125761E-18
 21
-0.1999999999999993
 31
1.110223024625152E-17
210
-1.710569414459005E-49
220
5.551115123125781E-17
230
1.0
 40
0.57735
 41
6.021385919380434
 42
7.592182246175334
  0
ELLIPSE
  5
24A
330
1F
100
AcDbEntity
  8
1
  6
Continuous
 62
   163
370
    18
100
AcDbEllipse
 10
83.680301
 20
236.60696
 30
0.0
 11
-5.551115123125802E-18
 21
-0.2000000000000008
 31
1.110223024625160E-17
210
1.710569414459005E-49
220
5.551115123125781E-17
230
1.0
 40
0.57735
 41
6.021385919380437
 42
8.458825486253115
  0
ELLIPSE
  5
24B
330
1F
100
AcDbEntity
  8
1
  6
Continuous
 62
   163
370
    18
100
AcDbEllipse
 10
80.258136
 20
243.88921
 30
0.0
 11
5.551115123125761E-18
 21
0.1999999999999993
 31
-1.110223024625152E-17
210
-1.710569414459005E-49
220
5.551115123125781E-17
230
1.0
 40
0.57735
 41
1.308996938995746
 42
2.87979326579064
  0
ELLIPSE
  5
24C
330
1F
100
AcDbEntity
  8
1
  6
Continuous
 62
   163
370
    18
100
AcDbEllipse
 10
80.084684
 20
240.449771
 30
0.0
 11
-5.551115123125811E-18
 21
-0.2000000000000011
 31
1.110223024625162E-17
210
1.710569414459005E-49
220
5.551115123125781E-17
230
1.0
 40
0.57735
 41
1.308996938995747
 42
2.879793265790644
  0
ELLIPSE
  5
24D
330
1F
100
AcDbEntity
  8
1
  6
Continuous
 62
   163
370
    18
100
AcDbEllipse
 10
85.103781
 20
238.1204
 30
0.0
 11
5.551115123125761E-18
 21
0.1999999999999993
 31
-1.110223024625152E-17
210
-1.710569414459005E-49
220
5.551115123125781E-17
230
1.0
 40
0.57735
 41
4.450589592585539
 42
6.021385919380434
  0
ELLIPSE
  5
24E
330
1F
100
AcDbEntity
  8
1
  6
Continuous
 62
   163
370
    18
100
AcDbEllipse
 10
82.36051
 20
245.501686
 30
0.0
 11
-5.551115123125811E-18
 21
-0.2000000000000011
 31
1.110223024625162E-17
210
1.710569414459005E-49
220
5.551115123125781E-17
230
1.0
 40
0.57735
 41
6.021385919380437
 42
7.592182246175335
  0
ELLIPSE
  5
24F
330
1F
100
AcDbEntity
  8
1
  6
Continuous
 62
   163
370
    18
100
AcDbEllipse
 10
80.141862
 20
239.273895
 30
0.0
 11
-5.551115123125785E-18
 21
-0.2000000000000001
 31
1.110223024625157E-17
210
1.710569414459005E-49
220
5.551115123125781E-17
230
1.0
 40
0.57735
 41
4.450589592585541
 42
6.888029159458219
  0
ELLIPSE
  5
250
330
1F
100
AcDbEntity
  8
1
  6
Continuous
 62
   163
370
    18
100
AcDbEllipse
 10
80.981707
 20
244.70274
 30
0.0
 11
5.551115123125785E-18
 21
0.2000000000000001
 31
-1.110223024625157E-17
210
1.710569414459005E-49
220
5.551115123125781E-17
230
1.0
 40
0.57735
 41
5.154742679302656
 42
7.592182246175333
  0
ELLIPSE
  5
251
330
1F
100
AcDbEntity
  8
1
  6
Continuous
 62
   163
370
    18
100
AcDbEllipse
 10
84.380211
 20
237.30687
 30
0.0
 11
5.551115123125785E-18
 21
0.2000000000000001
 31
-1.110223024625157E-17
210
1.710569414459005E-49
220
5.551115123125781E-17
230
1.0
 40
0.57735
 41
2.013150025712861
 42
4.450589592585541
  0
ELLIPSE
  5
252
330
1F
100
AcDbEntity
  8
1
  6
Continuous
 62
   163
370
    18
100
AcDbEllipse
 10
79.750077
 20
240.605063
 30
0.0
 11
-5.551115123125761E-18
 21
-0.1999999999999993
 31
1.110223024625152E-17
210
-1.710569414459005E-49
220
5.551115123125781E-17
230
1.0
 40
0.57735
 41
2.879793265790641
 42
4.450589592585539
  0
ELLIPSE
  5
253
330
1F
100
AcDbEntity
  8
1
  6
Continuous
 62
   163
370
    18
100
AcDbEllipse
 10
82.450167
 20
246.081241
 30
0.0
 11
-5.551115123125761E-18
 21
-0.1999999999999993
 31
1.110223024625152E-17
210
-1.710569414459005E-49
220
5.551115123125781E-17
230
1.0
 40
0.57735
 41
1.308996938995755
 42
2.879793265790644
  0
ELLIPSE
  5
254
330
1F
100
AcDbEntity
  8
1
  6
Continuous
 62
   163
370
    18
100
AcDbEllipse
 10
82.680959
 20
241.004805
 30
0.0
 11
3.469446951953614E-17
 21
1.25
 31
-6.938893903907227E-17
210
-1.710569414459005E-49
220
5.551115123125781E-17
230
1.0
 40
0.57735
 41
0.0
 42
6.283185307179586
  0
ELLIPSE
  5
255
330
1F
100
AcDbEntity
  8
1
  6
Continuous
 62
   163
370
    18
100
AcDbEllipse
 10
81.015647
 20
236.808354
 30
0.0
 11
5.551115123125761E-18
 21
0.1999999999999993
 31
-1.110223024625152E-17
210
-1.710569414459005E-49
220
5.551115123125781E-17
230
1.0
 40
0.57735
 41
2.879793265790645
 42
4.450589592585535
  0
ELLIPSE
  5
256
330
1F
100
AcDbEntity
  8
1
  6
Continuous
 62
   163
370
    18
100
AcDbEllipse
 10
84.346271
 20
245.201257
 30
0.0
 11
5.551115123125761E-18
 21
0.1999999999999993
 31
-1.110223024625152E-17
210
-1.710569414459005E-49
220
5.551115123125781E-17
230
1.0
 40
0.57735
 41
6.021385919380437
 42
7.592182246175332
  0
ELLIPSE
  5
257
330
1F
100
AcDbEntity
  8
1
  6
Continuous
 62
   163
370
    18
100
AcDbEllipse
 10
80.545955
 20
238.061614
 30
0.0
 11
5.551115123125802E-18
 21
0.2000000000000008
 31
-1.110223024625160E-17
210
1.710569414459005E-49
220
5.551115123125781E-17
230
1.0
 40
0.57735
 41
0.4423536989179638
 42
2.879793265790644
  0
ELLIPSE
  5
258
330
1F
100
AcDbEntity
  8
1
  6
Continuous
 62
   163
370
    18
100
AcDbEllipse
 10
84.815963
 20
243.947996
 30
0.0
 11
5.551115123125802E-18
 21
0.2000000000000008
 31
-1.110223024625160E-17
210
1.710569414459005E-49
220
5.551115123125781E-17
230
1.0
 40
0.57735
 41
3.58394635250776
 42
6.021385919380434
  0
ELLIPSE
  5
259
330
1F
100
AcDbEntity
  8
1
  6
Continuous
 62
   163
370
    18
100
AcDbEllipse
 10
85.277234
 20
241.559839
 30
0.0
 11
-5.551115123125811E-18
 21
-0.2000000000000011
 31
1.110223024625162E-17
210
1.710569414459005E-49
220
5.551115123125781E-17
230
1.0
 40
0.57735
 41
4.45058959258554
 42
6.021385919380436
  0
ELLIPSE
  5
25A
330
1F
100
AcDbEntity
  8
1
  6
Continuous
 62
   163
370
    18
100
AcDbEllipse
 10
83.001408
 20
236.507924
 30
0.0
 11
-5.551115123125811E-18
 21
-0.2000000000000011
 31
1.110223024625162E-17
210
1.710569414459005E-49
220
5.551115123125781E-17
230
1.0
 40
0.57735
 41
2.879793265790647
 42
4.450589592585537
  0
ELLIPSE
  5
25B
330
1F
100
AcDbEntity
  8
1
  6
Continuous
 62
   163
370
    18
100
AcDbEllipse
 10
81.105304
 20
237.387909
 30
0.0
 11
5.551115123125811E-18
 21
0.2000000000000011
 31
-1.110223024625162E-17
210
1.710569414459005E-49
220
5.551115123125781E-17
230
1.0
 40
0.57735
 41
4.45058959258554
 42
6.021385919380438
  0
ELLIPSE
  5
25C
330
1F
100
AcDbEntity
  8
1
  6
Continuous
 62
   163
370
    18
100
AcDbEllipse
 10
82.91175
 20
235.928369
 30
0.0
 11
-5.551115123125761E-18
 21
-0.1999999999999993
 31
1.110223024625152E-17
210
-1.710569414459005E-49
220
5.551115123125781E-17
230
1.0
 40
0.57735
 41
4.450589592585548
 42
6.021385919380437
  0
ELLIPSE
  5
25D
330
1F
100
AcDbEntity
  8
1
  6
Continuous
 62
   163
370
    18
100
AcDbEllipse
 10
81.681617
 20
245.402651
 30
0.0
 11
-5.551115123125802E-18
 21
-0.2000000000000008
 31
1.110223024625160E-17
210
1.710569414459005E-49
220
5.551115123125781E-17
230
1.0
 40
0.57735
 41
2.879793265790643
 42
5.317232832663322
  0
MTEXT
  5
25E
330
1F
100
AcDbEntity
  8
256
  6
Continuous
 62
    18
370
    13
100
AcDbMText
 10
12.565457
 20
274.800531
 30
0.0
 40
3.5
 41
0.0
 71
     7
 72
     5
  1
\W1.0546;              
  7
blockfont
 73
     2
 44
0.903614
  0
INSERT
  5
322
330
1F
100
AcDbEntity
  8
256
  6
Continuous
 62
    18
370
    13
100
AcDbBlockReference
  2
3RDANG1
 10
11.690457
 20
269.617747
 30
0.0
 41
46.0
 42
16.0
  0
MTEXT
  5
326
330
1F
100
AcDbEntity
  8
256
  6
Continuous
 62
    18
370
    13
100
AcDbMText
 10
34.545352
 20
84.719327
 30
0.0
 40
7.0
 41
0.0
 71
     7
 72
     5
  1
\W1.2283;Scale 5:1\P 
  7
blockfont
 73
     1
 44
0.903614
  0
LINE
  5
327
330
1F
100
AcDbEntity
  8
256
  6
CENTER
 62
    18
370
    13
100
AcDbLine
 10
36.158401
 20
209.853622
 30
0.0
 11
52.158401
 21
209.853622
 31
0.0
  0
LINE
  5
328
330
1F
100
AcDbEntity
  8
256
  6
CENTER
 62
    18
370
    13
100
AcDbLine
 10
44.158401
 20
201.853622
 30
0.0
 11
44.158401
 21
217.853622
 31
0.0
  0
LINE
  5
329
330
1F
100
AcDbEntity
  8
256
  6
CENTER
 62
    18
370
    13
100
AcDbLine
 10
52.908401
 20
150.578562
 30
0.0
 11
75.408401
 21
150.578562
 31
0.0
  0
LINE
  5
32A
330
1F
100
AcDbEntity
  8
256
  6
CENTER
 62
    18
370
    13
100
AcDbLine
 10
64.158401
 20
139.328562
 30
0.0
 11
64.158401
 21
161.828562
 31
0.0
  0
LINE
  5
32B
330
1F
100
AcDbEntity
  8
256
  6
CENTER
 62
    18
370
    13
100
AcDbLine
 10
36.622867
 20
178.114096
 30
0.0
 11
91.693935
 21
123.043028
 31
0.0
  0
LINE
  5
32C
330
1F
100
AcDbEntity
  8
256
  6
CENTER
 62
    18
370
    13
100
AcDbLine
 10
36.622867
 20
123.043028
 30
0.0
 11
91.693935
 21
178.114096
 31
0.0
  0
DIMENSION
  5
32D
102
{ACAD_REACTORS
330
32F
102
}
102
{ACAD_XDICTIONARY
360
32E
102
}
330
1F
100
AcDbEntity
  8
256
  6
Continuous
 62
    18
370
    13
100
AcDbDimension
  2
_U0
 10
115.075534
 20
143.078562
 30
0.0
 11
115.075534
 21
149.119302
 31
0.0
 70
   160
  1
\C18;3
 71
     1
 42
15.0
 52
90.0
  3
Standard
100
AcDbAlignedDimension
 13
88.158401
 23
158.078562
 33
0.0
 14
86.658401
 24
143.078562
 34
0.0
 50
90.0
100
AcDbRotatedDimension
1001
ACAD
1000
DSTYLE
1002
{
1070
   371
1070
    13
1070
   372
1070
    13
1070
     3
1000

1070
   170
1070
     0
1070
   144
1040
1.0
1070
   277
1070
     2
1070
   284
1070
     8
1070
   278
1070
    44
1070
   146
1040
1.0
1070
   345
1005
16
1070
   347
1005
16
1070
   346
1005
16
1070
   344
1005
0
1070
   343
1005
0
1070
   172
1070
     1
1070
    76
1070
     0
1070
    75
1070
     0
1070
   282
1070
     0
1070
   281
1070
     0
1070
    71
1070
     0
1070
   289
1070
     2
1070
    74
1070
     0
1070
   279
1070
     0
1070
   173
1070
     1
1070
   340
1005
25F
1070
   271
1070
     1
1070
   272
1070
     2
1070
    77
1070
     1
1070
    73
1070
     0
1070
   171
1070
     3
1070
   274
1070
     4
1070
   177
1070
    18
1070
   176
1070
    18
1070
   178
1070
    18
1070
    78
1070
     8
1070
    48
1040
-0.1
1070
    41
1040
3.5
1070
   147
1040
1.75
1070
    42
1040
0.0
1070
    44
1040
2.0
1070
   140
1040
3.5
1002
}
1001
ACAD_DSTYLE_DIM_LINETYPE
1070
   380
1005
16
1001
ACAD_DSTYLE_DIM_EXT1_LINETYPE
1070
   381
1005
16
1001
ACAD_DSTYLE_DIM_EXT2_LINETYPE
1070
   382
1005
16
  0
DIMENSION
  5
347
102
{ACAD_REACTORS
330
349
102
}
102
{ACAD_XDICTIONARY
360
348
102
}
330
1F
100
AcDbEntity
  8
256
  6
Continuous
 62
    18
370
    13
100
AcDbDimension
  2
_U1
 10
57.959891
 20
151.379169
 30
0.0
 11
97.751738
 21
146.239605
 31
0.0
 70
   163
  1
%%c\C18;2,5
 71
     1
 42
12.5
  3
Standard
100
AcDbDiametricDimension
 15
70.356911
 25
149.777954
 35
0.0
 40
0.0
1001
ACAD
1000
DSTYLE
1002
{
1070
   371
1070
    13
1070
   372
1070
    13
1070
     3
1000

1070
   170
1070
     0
1070
   144
1040
1.0
1070
   277
1070
     2
1070
   284
1070
     8
1070
   278
1070
    44
1070
   146
1040
1.0
1070
   345
1005
16
1070
   347
1005
16
1070
   346
1005
16
1070
   344
1005
0
1070
   343
1005
0
1070
    74
1070
     0
1070
    76
1070
     0
1070
    75
1070
     0
1070
   282
1070
     0
1070
   281
1070
     0
1070
    71
1070
     0
1070
   279
1070
     0
1070
   173
1070
     1
1070
   340
1005
25F
1070
   271
1070
     1
1070
   272
1070
     2
1070
    77
1070
     1
1070
    73
1070
     0
1070
   171
1070
     3
1070
   274
1070
     4
1070
   177
1070
    18
1070
   176
1070
    18
1070
   178
1070
    18
1070
    78
1070
     8
1070
    48
1040
-0.1
1070
    41
1040
3.5
1070
   147
1040
1.75
1070
    42
1040
0.0
1070
    44
1040
2.0
1070
   140
1040
3.5
1002
}
1001
ACAD_DSTYLE_DIM_LINETYPE
1070
   380
1005
16
1001
ACAD_DSTYLE_DIM_EXT1_LINETYPE
1070
   381
1005
16
1001
ACAD_DSTYLE_DIM_EXT2_LINETYPE
1070
   382
1005
16
  0
DIMENSION
  5
351
102
{ACAD_REACTORS
330
353
102
}
102
{ACAD_XDICTIONARY
360
352
102
}
330
1F
100
AcDbEntity
  8
256
  6
Continuous
 62
    18
370
    13
100
AcDbDimension
  2
_U2
 10
27.191315
 20
125.578562
 30
0.0
 11
27.191315
 21
147.320853
 31
0.0
 70
   160
  1
\C18;10
 71
     1
 42
50.0
 52
90.0
  3
Standard
100
AcDbAlignedDimension
 13
47.908401
 23
175.578562
 33
0.0
 14
47.908401
 24
125.578562
 34
0.0
 50
90.0
100
AcDbRotatedDimension
1001
ACAD
1000
DSTYLE
1002
{
1070
   371
1070
    13
1070
   372
1070
    13
1070
     3
1000

1070
   170
1070
     0
1070
   144
1040
1.0
1070
   277
1070
     2
1070
   284
1070
     8
1070
   278
1070
    44
1070
   146
1040
1.0
1070
   345
1005
16
1070
   347
1005
16
1070
   346
1005
16
1070
   344
1005
0
1070
   343
1005
0
1070
   172
1070
     1
1070
    76
1070
     0
1070
    75
1070
     0
1070
   282
1070
     0
1070
   281
1070
     0
1070
    71
1070
     0
1070
   289
1070
     2
1070
    74
1070
     0
1070
   279
1070
     0
1070
   173
1070
     1
1070
   340
1005
25F
1070
   271
1070
     1
1070
   272
1070
     2
1070
    77
1070
     1
1070
    73
1070
     0
1070
   171
1070
     3
1070
   274
1070
     4
1070
   177
1070
    18
1070
   176
1070
    18
1070
   178
1070
    18
1070
    78
1070
     8
1070
    48
1040
-0.1
1070
    41
1040
3.5
1070
   147
1040
1.75
1070
    42
1040
0.0
1070
    44
1040
2.0
1070
   140
1040
3.5
1002
}
1001
ACAD_DSTYLE_DIM_LINETYPE
1070
   380
1005
16
1001
ACAD_DSTYLE_DIM_EXT1_LINETYPE
1070
   381
1005
16
1001
ACAD_DSTYLE_DIM_EXT2_LINETYPE
1070
   382
1005
16
  0
INSERT
  5
370
330
1F
100
AcDbEntity
  8
256
  6
Continuous
 62
    18
370
    13
100
AcDbBlockReference
  2
_U3
 10
0.0
 20
0.0
 30
0.0
  0
INSERT
  5
37A
330
1F
100
AcDbEntity
  8
256
  6
Continuous
 62
    18
370
    13
100
AcDbBlockReference
  2
_U4
 10
0.0
 20
0.0
 30
0.0
  0
DIMENSION
  5
37D
102
{ACAD_REACTORS
330
37F
102
}
102
{ACAD_XDICTIONARY
360
37E
102
}
330
1F
100
AcDbEntity
  8
256
  6
Continuous
 62
    18
370
    13
100
AcDbDimension
  2
_U5
 10
89.158401
 20
108.574994
 30
0.0
 11
81.741691
 21
108.574994
 31
0.0
 70
   160
  1
\C18;3
 71
     1
 42
15.0
 52
90.0
  3
Standard
100
AcDbAlignedDimension
 13
74.158401
 23
145.578562
 33
0.0
 14
89.158401
 24
134.328562
 34
0.0
100
AcDbRotatedDimension
1001
ACAD
1000
DSTYLE
1002
{
1070
   371
1070
    13
1070
   372
1070
    13
1070
     3
1000

1070
   170
1070
     0
1070
   144
1040
1.0
1070
   277
1070
     2
1070
   284
1070
     8
1070
   278
1070
    44
1070
   146
1040
1.0
1070
   345
1005
16
1070
   347
1005
16
1070
   346
1005
16
1070
   344
1005
0
1070
   343
1005
0
1070
   172
1070
     1
1070
    76
1070
     0
1070
    75
1070
     0
1070
   282
1070
     0
1070
   281
1070
     0
1070
    71
1070
     0
1070
   289
1070
     2
1070
    74
1070
     0
1070
   279
1070
     0
1070
   173
1070
     1
1070
   340
1005
25F
1070
   271
1070
     1
1070
   272
1070
     2
1070
    77
1070
     1
1070
    73
1070
     1
1070
   171
1070
     3
1070
   274
1070
     4
1070
   177
1070
    18
1070
   176
1070
    18
1070
   178
1070
    18
1070
    78
1070
     8
1070
    48
1040
-0.1
1070
    41
1040
3.5
1070
   147
1040
1.75
1070
    42
1040
0.0
1070
    44
1040
2.0
1070
   140
1040
3.5
1002
}
1001
ACAD_DSTYLE_DIM_LINETYPE
1070
   380
1005
16
1001
ACAD_DSTYLE_DIM_EXT1_LINETYPE
1070
   381
1005
16
1001
ACAD_DSTYLE_DIM_EXT2_LINETYPE
1070
   382
1005
16
  0
DIMENSION
  5
396
102
{ACAD_REACTORS
330
398
102
}
102
{ACAD_XDICTIONARY
360
397
102
}
330
1F
100
AcDbEntity
  8
256
  6
Continuous
 62
    18
370
    13
100
AcDbDimension
  2
_U6
 10
69.158401
 20
186.08243
 30
0.0
 11
64.265022
 21
186.08243
 31
0.0
 70
   160
  1
\C18;2
 71
     1
 42
10.0
 52
90.0
  3
Standard
100
AcDbAlignedDimension
 13
59.158401
 23
160.578562
 33
0.0
 14
69.158401
 24
160.578562
 34
0.0
100
AcDbRotatedDimension
1001
ACAD
1000
DSTYLE
1002
{
1070
   371
1070
    13
1070
   372
1070
    13
1070
     3
1000

1070
   170
1070
     0
1070
   144
1040
1.0
1070
   277
1070
     2
1070
   284
1070
     8
1070
   278
1070
    44
1070
   146
1040
1.0
1070
   345
1005
16
1070
   347
1005
16
1070
   346
1005
16
1070
   344
1005
0
1070
   343
1005
0
1070
   172
1070
     1
1070
    76
1070
     0
1070
    75
1070
     0
1070
   282
1070
     0
1070
   281
1070
     0
1070
    71
1070
     0
1070
   289
1070
     2
1070
    74
1070
     0
1070
   279
1070
     0
1070
   173
1070
     1
1070
   340
1005
25F
1070
   271
1070
     1
1070
   272
1070
     2
1070
    77
1070
     1
1070
    73
1070
     1
1070
   171
1070
     3
1070
   274
1070
     4
1070
   177
1070
    18
1070
   176
1070
    18
1070
   178
1070
    18
1070
    78
1070
     8
1070
    48
1040
-0.1
1070
    41
1040
3.5
1070
   147
1040
1.75
1070
    42
1040
0.0
1070
    44
1040
2.0
1070
   140
1040
3.5
1002
}
1001
ACAD_DSTYLE_DIM_LINETYPE
1070
   380
1005
16
1001
ACAD_DSTYLE_DIM_EXT1_LINETYPE
1070
   381
1005
16
1001
ACAD_DSTYLE_DIM_EXT2_LINETYPE
1070
   382
1005
16
  0
INSERT
  5
3CC
330
1F
100
AcDbEntity
  8
256
  6
Continuous
 62
   163
370
    18
100
AcDbBlockReference
  2
TabularNote1
 10
0.0
 20
0.0
 30
0.0
  0
INSERT
  5
3F9
330
1F
100
AcDbEntity
  8
1
  6
Continuous
 62
    18
370
    18
100
AcDbBlockReference
  2
TabularNote2
 10
0.0
 20
0.0
 30
0.0
  0
INSERT
  5
418
330
1F
100
AcDbEntity
  8
1
  6
Continuous
 62
    18
370
    18
100
AcDbBlockReference
  2
TabularNote3
 10
0.0
 20
0.0
 30
0.0
  0
ENDSEC
  0
SECTION
  2
OBJECTS
  0
DICTIONARY
  5
C
330
0
100
AcDbDictionary
281
     1
  3
ACAD_GROUP
350
D
  3
ACAD_LAYOUT
350
1A
  3
ACAD_MATERIAL
350
43
  3
ACAD_MLEADERSTYLE
350
42E
  3
ACAD_MLINESTYLE
350
17
  3
ACAD_PLOTSETTINGS
350
19
  3
ACAD_PLOTSTYLENAME
350
E
  3
ACAD_SCALELIST
350
47
  3
ACAD_VISUALSTYLE
350
2A
  3
AcDbVariableDictionary
350
42C
  0
DICTIONARY
  5
32E
330
32D
100
AcDbDictionary
280
     1
281
     1
  3
ACAD_DIMASSOC
360
32F
  0
DICTIONARY
  5
348
330
347
100
AcDbDictionary
280
     1
281
     1
  3
ACAD_DIMASSOC
360
349
  0
DICTIONARY
  5
352
330
351
100
AcDbDictionary
280
     1
281
     1
  3
ACAD_DIMASSOC
360
353
  0
DICTIONARY
  5
37E
330
37D
100
AcDbDictionary
280
     1
281
     1
  3
ACAD_DIMASSOC
360
37F
  0
DICTIONARY
  5
397
330
396
100
AcDbDictionary
280
     1
281
     1
  3
ACAD_DIMASSOC
360
398
  0
DICTIONARY
  5
D
102
{ACAD_REACTORS
330
C
102
}
330
C
100
AcDbDictionary
281
     1
  0
DICTIONARY
  5
1A
102
{ACAD_REACTORS
330
C
102
}
330
C
100
AcDbDictionary
281
     1
  3
Layout1
350
1E
  3
Layout2
350
26
  3
Model
350
22
  0
DICTIONARY
  5
43
102
{ACAD_REACTORS
330
C
102
}
330
C
100
AcDbDictionary
281
     1
  3
ByBlock
350
45
  3
ByLayer
350
44
  3
Global
350
46
  0
DICTIONARY
  5
42E
102
{ACAD_REACTORS
330
C
102
}
330
C
100
AcDbDictionary
281
     1
  0
DICTIONARY
  5
17
102
{ACAD_REACTORS
330
C
102
}
330
C
100
AcDbDictionary
281
     1
  3
Standard
350
18
  0
DICTIONARY
  5
19
102
{ACAD_REACTORS
330
C
102
}
330
C
100
AcDbDictionary
281
     1
  0
ACDBDICTIONARYWDFLT
  5
E
102
{ACAD_REACTORS
330
C
102
}
330
C
100
AcDbDictionary
281
     1
  3
Normal
350
F
100
AcDbDictionaryWithDefault
340
F
  0
DICTIONARY
  5
47
102
{ACAD_REACTORS
330
C
102
}
330
C
100
AcDbDictionary
281
     1
  3
A0
350
48
  3
A1
350
49
  3
A2
350
4A
  3
A3
350
4B
  3
A4
350
4C
  3
A5
350
4D
  3
A6
350
4E
  3
A7
350
4F
  3
A8
350
50
  3
A9
350
51
  3
B0
350
52
  3
B1
350
53
  3
B2
350
54
  3
B3
350
55
  3
B4
350
56
  3
B5
350
57
  3
B6
350
58
  3
B7
350
59
  3
B8
350
5A
  3
B9
350
5B
  3
C0
350
5C
  3
C1
350
5D
  3
C2
350
5E
  3
C3
350
5F
  3
C4
350
60
  3
C5
350
61
  3
C6
350
62
  3
C7
350
63
  3
C8
350
64
  3
C9
350
65
  3
D0
350
66
  3
D1
350
67
  3
D2
350
68
  0
DICTIONARY
  5
2A
102
{ACAD_REACTORS
330
C
102
}
330
C
100
AcDbDictionary
281
     1
  3
2dWireframe
350
2F
  3
Basic
350
32
  3
Brighten
350
36
  3
ColorChange
350
3A
  3
Conceptual
350
34
  3
Dim
350
35
  3
EdgeColorOff
350
3D
  3
Facepattern
350
39
  3
Flat
350
2B
  3
FlatWithEdges
350
2C
  3
Gouraud
350
2D
  3
GouraudWithEdges
350
2E
  3
Hidden
350
31
  3
JitterOff
350
3B
  3
Linepattern
350
38
  3
OverhangOff
350
3C
  3
Realistic
350
33
  3
Shaded
350
42
  3
Shaded with edges
350
41
  3
Shades of Gray
350
3E
  3
Sketchy
350
3F
  3
Thicken
350
37
  3
Wireframe
350
30
  3
X-Ray
350
40
  0
DICTIONARY
  5
42C
102
{ACAD_REACTORS
330
C
102
}
330
C
100
AcDbDictionary
281
     1
  3
CANNOSCALE
350
436
  3
DIMASSOC
350
431
  3
HIDETEXT
350
432
  3
MSLTSCALE
350
437
  0
DIMASSOC
  5
32F
102
{ACAD_REACTORS
330
32E
102
}
330
32E
100
AcDbDimAssoc
330
32D
 90
        3
 70
     0
 71
     1
  1
AcDbOsnapPointRef
 72
    13
331
15A
 73
     2
 91
        1
 40
0.0
 10
88.158401
 20
158.078562
 30
0.0
 75
     0
  1
AcDbOsnapPointRef
 72
    13
331
1AC
 73
     2
 91
        2
 40
0.0
 10
86.658401
 20
143.078562
 30
0.0
 75
     0
  0
DIMASSOC
  5
349
102
{ACAD_REACTORS
330
348
102
}
330
348
100
AcDbDimAssoc
330
347
 90
        2
 70
     0
 71
     1
  1
AcDbOsnapPointRef
 72
     3
331
1E9
 73
     2
 91
        1
 40
0.0
 10
64.158401
 20
150.578562
 30
0.0
 75
     0
  0
DIMASSOC
  5
353
102
{ACAD_REACTORS
330
352
102
}
330
352
100
AcDbDimAssoc
330
351
 90
        3
 70
     0
 71
     1
  1
AcDbOsnapPointRef
 72
    13
331
1AD
 73
     2
 91
        1
 40
0.0
 10
47.908401
 20
175.578562
 30
0.0
 75
     0
  1
AcDbOsnapPointRef
 72
    13
331
1AE
 73
     2
 91
        2
 40
0.0
 10
47.908401
 20
125.578562
 30
0.0
 75
     0
  0
DIMASSOC
  5
37F
102
{ACAD_REACTORS
330
37E
102
}
330
37E
100
AcDbDimAssoc
330
37D
 90
        3
 70
     0
 71
     1
  1
AcDbOsnapPointRef
 72
     1
331
15B
 73
     2
 91
        1
 40
1.0
 10
74.158401
 20
145.578562
 30
0.0
 75
     0
  1
AcDbOsnapPointRef
 72
    13
331
1B2
 73
     2
 91
        2
 40
0.0
 10
89.158401
 20
134.328562
 30
0.0
 75
     0
  0
DIMASSOC
  5
398
102
{ACAD_REACTORS
330
397
102
}
330
397
100
AcDbDimAssoc
330
396
 90
        3
 70
     0
 71
     1
  1
AcDbOsnapPointRef
 72
    13
331
15C
 73
     2
 91
        1
 40
0.0
 10
59.158401
 20
160.578562
 30
0.0
 75
     0
  1
AcDbOsnapPointRef
 72
    13
331
15E
 73
     2
 91
        2
 40
0.0
 10
69.158401
 20
160.578562
 30
0.0
 75
     0
  0
LAYOUT
  5
1E
102
{ACAD_REACTORS
330
1A
102
}
330
1A
100
AcDbPlotSettings
  1

  2
none_device
  4

  6

 40
0.0
 41
0.0
 42
0.0
 43
0.0
 44
0.0
 45
0.0
 46
0.0
 47
0.0
 48
0.0
 49
0.0
140
0.0
141
0.0
142
1.0
143
1.0
 70
   688
 72
     0
 73
     0
 74
     5
  7

 75
    16
147
1.0
148
0.0
149
0.0
100
AcDbLayout
  1
Layout1
 70
     1
 71
     1
 10
-0.5
 20
-0.5
 11
5.0
 21
5.0
 12
0.0
 22
0.0
 32
0.0
 14
-0.5
 24
-0.5
 34
-0.5
 15
5.0
 25
5.0
 35
5.0
146
0.0
 13
0.0
 23
0.0
 33
0.0
 16
1.0
 26
0.0
 36
0.0
 17
0.0
 27
1.0
 37
0.0
 76
     0
330
1B
  0
LAYOUT
  5
26
102
{ACAD_REACTORS
330
1A
102
}
330
1A
100
AcDbPlotSettings
  1

  2
none_device
  4

  6

 40
0.0
 41
0.0
 42
0.0
 43
0.0
 44
0.0
 45
0.0
 46
0.0
 47
0.0
 48
0.0
 49
0.0
140
0.0
141
0.0
142
1.0
143
1.0
 70
   688
 72
     0
 73
     0
 74
     5
  7

 75
    16
147
1.0
148
0.0
149
0.0
100
AcDbLayout
  1
Layout2
 70
     1
 71
     2
 10
0.0
 20
0.0
 11
0.0
 21
0.0
 12
0.0
 22
0.0
 32
0.0
 14
0.0
 24
0.0
 34
0.0
 15
0.0
 25
0.0
 35
0.0
146
0.0
 13
0.0
 23
0.0
 33
0.0
 16
1.0
 26
0.0
 36
0.0
 17
0.0
 27
1.0
 37
0.0
 76
     0
330
23
  0
LAYOUT
  5
22
102
{ACAD_REACTORS
330
1A
102
}
330
1A
100
AcDbPlotSettings
  1

  2
none_device
  4
Letter_(8.50_x_11.00_Inches)
  6

 40
6.35
 41
6.35
 42
6.350005
 43
6.350005
 44
215.9
 45
279.4
 46
0.0
 47
0.0
 48
0.0
 49
0.0
140
0.0
141
0.0
142
1.0
143
1.0
 70
  1712
 72
     0
 73
     0
 74
     0
  7

 75
     0
147
1.0
148
0.0
149
0.0
100
AcDbLayout
  1
Model
 70
     1
 71
     0
 10
-0.5
 20
-0.5
 11
5.0
 21
5.0
 12
0.0
 22
0.0
 32
0.0
 14
-0.5
 24
-0.5
 34
-0.5
 15
5.0
 25
5.0
 35
5.0
146
0.0
 13
0.0
 23
0.0
 33
0.0
 16
1.0
 26
0.0
 36
0.0
 17
0.0
 27
1.0
 37
0.0
 76
     0
330
1F
331
41B
  0
MATERIAL
  5
45
102
{ACAD_REACTORS
330
43
102
}
102
{ACAD_XDICTIONARY
360
46A
102
}
330
43
100
AcDbMaterial
  1
ByBlock
  0
MATERIAL
  5
44
102
{ACAD_REACTORS
330
43
102
}
102
{ACAD_XDICTIONARY
360
468
102
}
330
43
100
AcDbMaterial
  1
ByLayer
  0
MATERIAL
  5
46
102
{ACAD_REACTORS
330
43
102
}
102
{ACAD_XDICTIONARY
360
46C
102
}
330
43
100
AcDbMaterial
  1
Global
  0
MLINESTYLE
  5
18
102
{ACAD_REACTORS
330
17
102
}
330
17
100
AcDbMlineStyle
  2
Standard
 70
     0
  3

 62
   256
 51
90.0
 52
90.0
 71
     2
 49
0.5
 62
   256
  6
BYLAYER
 49
-0.5
 62
   256
  6
BYLAYER
  0
ACDBPLACEHOLDER
  5
F
102
{ACAD_REACTORS
330
E
102
}
330
E
  0
SCALE
  5
48
102
{ACAD_REACTORS
330
47
102
}
330
47
100
AcDbScale
 70
     0
300
1:1
140
1.0
141
1.0
290
     1
  0
SCALE
  5
49
102
{ACAD_REACTORS
330
47
102
}
330
47
100
AcDbScale
 70
     0
300
1:2
140
1.0
141
2.0
290
     0
  0
SCALE
  5
4A
102
{ACAD_REACTORS
330
47
102
}
330
47
100
AcDbScale
 70
     0
300
1:4
140
1.0
141
4.0
290
     0
  0
SCALE
  5
4B
102
{ACAD_REACTORS
330
47
102
}
330
47
100
AcDbScale
 70
     0
300
1:5
140
1.0
141
5.0
290
     0
  0
SCALE
  5
4C
102
{ACAD_REACTORS
330
47
102
}
330
47
100
AcDbScale
 70
     0
300
1:8
140
1.0
141
8.0
290
     0
  0
SCALE
  5
4D
102
{ACAD_REACTORS
330
47
102
}
330
47
100
AcDbScale
 70
     0
300
1:10
140
1.0
141
10.0
290
     0
  0
SCALE
  5
4E
102
{ACAD_REACTORS
330
47
102
}
330
47
100
AcDbScale
 70
     0
300
1:16
140
1.0
141
16.0
290
     0
  0
SCALE
  5
4F
102
{ACAD_REACTORS
330
47
102
}
330
47
100
AcDbScale
 70
     0
300
1:20
140
1.0
141
20.0
290
     0
  0
SCALE
  5
50
102
{ACAD_REACTORS
330
47
102
}
330
47
100
AcDbScale
 70
     0
300
1:30
140
1.0
141
30.0
290
     0
  0
SCALE
  5
51
102
{ACAD_REACTORS
330
47
102
}
330
47
100
AcDbScale
 70
     0
300
1:40
140
1.0
141
40.0
290
     0
  0
SCALE
  5
52
102
{ACAD_REACTORS
330
47
102
}
330
47
100
AcDbScale
 70
     0
300
1:50
140
1.0
141
50.0
290
     0
  0
SCALE
  5
53
102
{ACAD_REACTORS
330
47
102
}
330
47
100
AcDbScale
 70
     0
300
1:100
140
1.0
141
100.0
290
     0
  0
SCALE
  5
54
102
{ACAD_REACTORS
330
47
102
}
330
47
100
AcDbScale
 70
     0
300
2:1
140
2.0
141
1.0
290
     0
  0
SCALE
  5
55
102
{ACAD_REACTORS
330
47
102
}
330
47
100
AcDbScale
 70
     0
300
4:1
140
4.0
141
1.0
290
     0
  0
SCALE
  5
56
102
{ACAD_REACTORS
330
47
102
}
330
47
100
AcDbScale
 70
     0
300
8:1
140
8.0
141
1.0
290
     0
  0
SCALE
  5
57
102
{ACAD_REACTORS
330
47
102
}
330
47
100
AcDbScale
 70
     0
300
10:1
140
10.0
141
1.0
290
     0
  0
SCALE
  5
58
102
{ACAD_REACTORS
330
47
102
}
330
47
100
AcDbScale
 70
     0
300
100:1
140
100.0
141
1.0
290
     0
  0
SCALE
  5
59
102
{ACAD_REACTORS
330
47
102
}
330
47
100
AcDbScale
 70
     0
300
1/128" = 1'-0"
140
0.007812
141
12.0
290
     0
  0
SCALE
  5
5A
102
{ACAD_REACTORS
330
47
102
}
330
47
100
AcDbScale
 70
     0
300
1/64" = 1'-0"
140
0.015625
141
12.0
290
     0
  0
SCALE
  5
5B
102
{ACAD_REACTORS
330
47
102
}
330
47
100
AcDbScale
 70
     0
300
1/32" = 1'-0"
140
0.03125
141
12.0
290
     0
  0
SCALE
  5
5C
102
{ACAD_REACTORS
330
47
102
}
330
47
100
AcDbScale
 70
     0
300
1/16" = 1'-0"
140
0.0625
141
12.0
290
     0
  0
SCALE
  5
5D
102
{ACAD_REACTORS
330
47
102
}
330
47
100
AcDbScale
 70
     0
300
3/32" = 1'-0"
140
0.09375
141
12.0
290
     0
  0
SCALE
  5
5E
102
{ACAD_REACTORS
330
47
102
}
330
47
100
AcDbScale
 70
     0
300
1/8" = 1'-0"
140
0.125
141
12.0
290
     0
  0
SCALE
  5
5F
102
{ACAD_REACTORS
330
47
102
}
330
47
100
AcDbScale
 70
     0
300
3/16" = 1'-0"
140
0.1875
141
12.0
290
     0
  0
SCALE
  5
60
102
{ACAD_REACTORS
330
47
102
}
330
47
100
AcDbScale
 70
     0
300
1/4" = 1'-0"
140
0.25
141
12.0
290
     0
  0
SCALE
  5
61
102
{ACAD_REACTORS
330
47
102
}
330
47
100
AcDbScale
 70
     0
300
3/8" = 1'-0"
140
0.375
141
12.0
290
     0
  0
SCALE
  5
62
102
{ACAD_REACTORS
330
47
102
}
330
47
100
AcDbScale
 70
     0
300
1/2" = 1'-0"
140
0.5
141
12.0
290
     0
  0
SCALE
  5
63
102
{ACAD_REACTORS
330
47
102
}
330
47
100
AcDbScale
 70
     0
300
3/4" = 1'-0"
140
0.75
141
12.0
290
     0
  0
SCALE
  5
64
102
{ACAD_REACTORS
330
47
102
}
330
47
100
AcDbScale
 70
     0
300
1" = 1'-0"
140
1.0
141
12.0
290
     0
  0
SCALE
  5
65
102
{ACAD_REACTORS
330
47
102
}
330
47
100
AcDbScale
 70
     0
300
1-1/2" = 1'-0"
140
1.5
141
12.0
290
     0
  0
SCALE
  5
66
102
{ACAD_REACTORS
330
47
102
}
330
47
100
AcDbScale
 70
     0
300
3" = 1'-0"
140
3.0
141
12.0
290
     0
  0
SCALE
  5
67
102
{ACAD_REACTORS
330
47
102
}
330
47
100
AcDbScale
 70
     0
300
6" = 1'-0"
140
6.0
141
12.0
290
     0
  0
SCALE
  5
68
102
{ACAD_REACTORS
330
47
102
}
330
47
100
AcDbScale
 70
     0
300
1'-0" = 1'-0"
140
12.0
141
12.0
290
     0
  0
VISUALSTYLE
  5
2F
102
{ACAD_REACTORS
330
2A
102
}
102
{ACAD_XDICTIONARY
360
440
102
}
330
2A
100
AcDbVisualStyle
  2
2dWireframe
 70
     4
 71
     0
 72
     2
 73
     0
 90
        0
 40
0.6
 41
30.0
 62
     5
 63
     7
 74
     1
 91
        4
 64
     7
 65
   257
 75
     1
175
     1
 42
1.0
 92
        0
 66
   257
 43
1.0
 76
     1
 77
     6
 78
     2
 67
     7
 79
     5
170
     0
171
     0
290
     0
174
     0
 93
        1
 44
0.0
173
     0
291
     0
 45
0.0
1001
ACAD
1000
AcDbSavedByObjectVersion
1070
     0
  0
VISUALSTYLE
  5
32
102
{ACAD_REACTORS
330
2A
102
}
102
{ACAD_XDICTIONARY
360
446
102
}
330
2A
100
AcDbVisualStyle
  2
Basic
 70
     7
 71
     1
 72
     0
 73
     1
 90
        0
 40
0.6
 41
30.0
 62
     5
 63
     7
 74
     0
 91
        4
 64
     7
 65
   257
 75
     1
175
     1
 42
1.0
 92
        8
 66
     7
 43
1.0
 76
     1
 77
     6
 78
     2
 67
     7
 79
     5
170
     0
171
     0
290
     0
174
     0
 93
        1
 44
0.0
173
     0
291
     1
 45
0.0
1001
ACAD
1000
AcDbSavedByObjectVersion
1070
     0
  0
VISUALSTYLE
  5
36
102
{ACAD_REACTORS
330
2A
102
}
102
{ACAD_XDICTIONARY
360
44E
102
}
330
2A
100
AcDbVisualStyle
  2
Brighten
 70
    12
 71
     2
 72
     2
 73
     0
 90
        0
 40
0.6
 41
30.0
 62
     5
 63
     7
 74
     1
 91
        4
 64
     7
 65
   257
 75
     1
175
     1
 42
1.0
 92
        8
 66
     7
 43
1.0
 76
     1
 77
     6
 78
     2
 67
     7
 79
     5
170
     0
171
     0
290
     0
174
     0
 93
        1
 44
50.0
173
     0
291
     1
 45
0.0
1001
ACAD
1000
AcDbSavedByObjectVersion
1070
     0
  0
VISUALSTYLE
  5
3A
102
{ACAD_REACTORS
330
2A
102
}
102
{ACAD_XDICTIONARY
360
456
102
}
330
2A
100
AcDbVisualStyle
  2
ColorChange
 70
    16
 71
     2
 72
     2
 73
     3
 90
        0
 40
0.6
 41
30.0
 62
     5
 63
     8
 74
     1
 91
        4
 64
     7
 65
   257
 75
     1
175
     1
 42
1.0
 92
        8
 66
     8
 43
1.0
 76
     1
 77
     6
 78
     2
 67
     7
 79
     5
170
     0
171
     0
290
     0
174
     0
 93
        1
 44
0.0
173
     0
291
     1
 45
0.0
1001
ACAD
1000
AcDbSavedByObjectVersion
1070
     0
  0
VISUALSTYLE
  5
34
102
{ACAD_REACTORS
330
2A
102
}
102
{ACAD_XDICTIONARY
360
44A
102
}
330
2A
100
AcDbVisualStyle
  2
Conceptual
 70
     9
 71
     3
 72
     2
 73
     0
 90
        0
 40
0.6
 41
30.0
 62
     5
 63
     7
 74
     2
 91
        2
 64
     7
 65
   257
 75
     1
175
     1
 42
179.0
 92
        8
 66
     7
 43
1.0
 76
     1
 77
     6
 78
     2
 67
     7
 79
     3
170
     0
171
     0
290
     0
174
     0
 93
        1
 44
0.0
173
     0
291
     0
 45
0.0
1001
ACAD
1000
AcDbSavedByObjectVersion
1070
     0
  0
VISUALSTYLE
  5
35
102
{ACAD_REACTORS
330
2A
102
}
102
{ACAD_XDICTIONARY
360
44C
102
}
330
2A
100
AcDbVisualStyle
  2
Dim
 70
    11
 71
     2
 72
     2
 73
     0
 90
        0
 40
0.6
 41
30.0
 62
     5
 63
     7
 74
     1
 91
        4
 64
     7
 65
   257
 75
     1
175
     1
 42
1.0
 92
        8
 66
     7
 43
1.0
 76
     1
 77
     6
 78
     2
 67
     7
 79
     5
170
     0
171
     0
290
     0
174
     0
 93
        1
 44
-50.0
173
     0
291
     1
 45
0.0
1001
ACAD
1000
AcDbSavedByObjectVersion
1070
     0
  0
VISUALSTYLE
  5
3D
102
{ACAD_REACTORS
330
2A
102
}
102
{ACAD_XDICTIONARY
360
45C
102
}
330
2A
100
AcDbVisualStyle
  2
EdgeColorOff
 70
    22
 71
     2
 72
     2
 73
     0
 90
        0
 40
0.6
 41
30.0
 62
     5
 63
     7
 74
     1
 91
        4
 64
     7
 65
   257
 75
     1
175
     1
 42
1.0
 92
        8
 66
     7
 43
1.0
 76
     1
 77
     6
 78
     2
 67
     7
 79
     5
170
     0
171
     0
290
     0
174
     0
 93
        1
 44
0.0
173
     0
291
     1
 45
0.0
1001
ACAD
1000
AcDbSavedByObjectVersion
1070
     0
  0
VISUALSTYLE
  5
39
102
{ACAD_REACTORS
330
2A
102
}
102
{ACAD_XDICTIONARY
360
454
102
}
330
2A
100
AcDbVisualStyle
  2
Facepattern
 70
    15
 71
     2
 72
     2
 73
     0
 90
        0
 40
0.6
 41
30.0
 62
     5
 63
     7
 74
     1
 91
        4
 64
     7
 65
   257
 75
     1
175
     1
 42
1.0
 92
        8
 66
     7
 43
1.0
 76
     1
 77
     6
 78
     2
 67
     7
 79
     5
170
     0
171
     0
290
     0
174
     0
 93
        1
 44
0.0
173
     0
291
     1
 45
0.0
1001
ACAD
1000
AcDbSavedByObjectVersion
1070
     0
  0
VISUALSTYLE
  5
2B
102
{ACAD_REACTORS
330
2A
102
}
102
{ACAD_XDICTIONARY
360
438
102
}
330
2A
100
AcDbVisualStyle
  2
Flat
 70
     0
 71
     2
 72
     1
 73
     1
 90
        2
 40
0.6
 41
30.0
 62
     5
 63
     7
 74
     0
 91
        0
 64
     7
 65
   257
 75
     1
175
     1
 42
1.0
 92
        8
 66
     7
 43
1.0
 76
     1
 77
     6
 78
     2
 67
     7
 79
     5
170
     0
171
     0
290
     0
174
     0
 93
       13
 44
0.0
173
     0
291
     1
 45
0.0
1001
ACAD
1000
AcDbSavedByObjectVersion
1070
     0
  0
VISUALSTYLE
  5
2C
102
{ACAD_REACTORS
330
2A
102
}
102
{ACAD_XDICTIONARY
360
43A
102
}
330
2A
100
AcDbVisualStyle
  2
FlatWithEdges
 70
     1
 71
     2
 72
     1
 73
     1
 90
        2
 40
0.6
 41
30.0
 62
     5
 63
     7
 74
     1
 91
        0
 64
     7
 65
   257
 75
     1
175
     1
 42
1.0
 92
        0
 66
   257
 43
1.0
 76
     1
 77
     6
 78
     2
 67
     7
 79
     5
170
     0
171
     0
290
     0
174
     0
 93
       13
 44
0.0
173
     0
291
     1
 45
0.0
1001
ACAD
1000
AcDbSavedByObjectVersion
1070
     0
  0
VISUALSTYLE
  5
2D
102
{ACAD_REACTORS
330
2A
102
}
102
{ACAD_XDICTIONARY
360
43C
102
}
330
2A
100
AcDbVisualStyle
  2
Gouraud
 70
     2
 71
     2
 72
     2
 73
     1
 90
        2
 40
0.6
 41
30.0
 62
     5
 63
     7
 74
     0
 91
        0
 64
     7
 65
   257
 75
     1
175
     1
 42
1.0
 92
        0
 66
     7
 43
1.0
 76
     1
 77
     6
 78
     2
 67
     7
 79
     5
170
     0
171
     0
290
     0
174
     0
 93
       13
 44
0.0
173
     0
291
     1
 45
0.0
1001
ACAD
1000
AcDbSavedByObjectVersion
1070
     0
  0
VISUALSTYLE
  5
2E
102
{ACAD_REACTORS
330
2A
102
}
102
{ACAD_XDICTIONARY
360
43E
102
}
330
2A
100
AcDbVisualStyle
  2
GouraudWithEdges
 70
     3
 71
     2
 72
     2
 73
     1
 90
        2
 40
0.6
 41
30.0
 62
     5
 63
     7
 74
     1
 91
        0
 64
     7
 65
   257
 75
     1
175
     1
 42
1.0
 92
        0
 66
   257
 43
1.0
 76
     1
 77
     6
 78
     2
 67
     7
 79
     5
170
     0
171
     0
290
     0
174
     0
 93
       13
 44
0.0
173
     0
291
     1
 45
0.0
1001
ACAD
1000
AcDbSavedByObjectVersion
1070
     0
  0
VISUALSTYLE
  5
31
102
{ACAD_REACTORS
330
2A
102
}
102
{ACAD_XDICTIONARY
360
444
102
}
330
2A
100
AcDbVisualStyle
  2
Hidden
 70
     6
 71
     1
 72
     2
 73
     2
 90
        0
 40
0.6
 41
30.0
 62
     5
 63
     7
 74
     2
 91
        2
 64
     7
 65
   257
 75
     2
175
     1
 42
40.0
 92
        0
 66
   257
 43
1.0
 76
     1
 77
     6
 78
     2
 67
     7
 79
     3
170
     0
171
     0
290
     0
174
     0
 93
        1
 44
0.0
173
     0
291
     0
 45
0.0
1001
ACAD
1000
AcDbSavedByObjectVersion
1070
     0
  0
VISUALSTYLE
  5
3B
102
{ACAD_REACTORS
330
2A
102
}
102
{ACAD_XDICTIONARY
360
458
102
}
330
2A
100
AcDbVisualStyle
  2
JitterOff
 70
    20
 71
     2
 72
     2
 73
     0
 90
        0
 40
0.6
 41
30.0
 62
     5
 63
     7
 74
     1
 91
        4
 64
     7
 65
   257
 75
     1
175
     1
 42
1.0
 92
       10
 66
     7
 43
1.0
 76
     1
 77
     6
 78
     2
 67
     7
 79
     5
170
     0
171
     0
290
     0
174
     0
 93
        1
 44
0.0
173
     0
291
     1
 45
0.0
1001
ACAD
1000
AcDbSavedByObjectVersion
1070
     0
  0
VISUALSTYLE
  5
38
102
{ACAD_REACTORS
330
2A
102
}
102
{ACAD_XDICTIONARY
360
452
102
}
330
2A
100
AcDbVisualStyle
  2
Linepattern
 70
    14
 71
     2
 72
     2
 73
     0
 90
        0
 40
0.6
 41
30.0
 62
     5
 63
     7
 74
     1
 91
        4
 64
     7
 65
   257
 75
     7
175
     7
 42
1.0
 92
        8
 66
     7
 43
1.0
 76
     1
 77
     6
 78
     2
 67
     7
 79
     5
170
     0
171
     0
290
     0
174
     0
 93
        1
 44
0.0
173
     0
291
     1
 45
0.0
1001
ACAD
1000
AcDbSavedByObjectVersion
1070
     0
  0
VISUALSTYLE
  5
3C
102
{ACAD_REACTORS
330
2A
102
}
102
{ACAD_XDICTIONARY
360
45A
102
}
330
2A
100
AcDbVisualStyle
  2
OverhangOff
 70
    21
 71
     2
 72
     2
 73
     0
 90
        0
 40
0.6
 41
30.0
 62
     5
 63
     7
 74
     1
 91
        4
 64
     7
 65
   257
 75
     1
175
     1
 42
1.0
 92
        9
 66
     7
 43
1.0
 76
     1
 77
     6
 78
     2
 67
     7
 79
     5
170
     0
171
     0
290
     0
174
     0
 93
        1
 44
0.0
173
     0
291
     1
 45
0.0
1001
ACAD
1000
AcDbSavedByObjectVersion
1070
     0
  0
VISUALSTYLE
  5
33
102
{ACAD_REACTORS
330
2A
102
}
102
{ACAD_XDICTIONARY
360
448
102
}
330
2A
100
AcDbVisualStyle
  2
Realistic
 70
     8
 71
     2
 72
     3
 73
     0
 90
        2
 40
0.6
 41
30.0
 62
     5
 63
     7
 74
     0
 91
        0
 64
     7
 65
   257
 75
     1
175
     1
 42
1.0
 92
        8
 66
   257
 43
1.0
 76
     1
 77
     6
 78
     2
 67
     7
 79
     3
170
     0
171
     0
290
     0
174
     0
 93
       13
 44
0.0
173
     0
291
     0
 45
0.0
1001
ACAD
1000
AcDbSavedByObjectVersion
1070
     0
  0
VISUALSTYLE
  5
42
102
{ACAD_REACTORS
330
2A
102
}
102
{ACAD_XDICTIONARY
360
466
102
}
330
2A
100
AcDbVisualStyle
  2
Shaded
 70
    27
 71
     2
 72
     2
 73
     1
 90
        2
 40
0.6
 41
30.0
 62
     5
 63
     7
 74
     0
 91
        4
 64
     7
 65
   257
 75
     1
175
     1
 42
1.0
 92
        8
 66
   257
 43
1.0
 76
     1
 77
     6
 78
     2
 67
     8
 79
     3
170
     0
171
     0
290
     0
174
     0
 93
        5
 44
0.0
173
     0
291
     0
 45
0.0
1001
ACAD
1000
AcDbSavedByObjectVersion
1070
     0
  0
VISUALSTYLE
  5
41
102
{ACAD_REACTORS
330
2A
102
}
102
{ACAD_XDICTIONARY
360
464
102
}
330
2A
100
AcDbVisualStyle
  2
Shaded with edges
 70
    26
 71
     2
 72
     2
 73
     1
 90
        2
 40
0.6
 41
30.0
 62
     5
 63
     7
 74
     1
 91
       10
 64
     7
 65
   257
 75
     2
175
     1
 42
1.0
 92
        8
 66
   257
 43
1.0
 76
     1
 77
     6
 78
     2
 67
     7
 79
     3
170
     0
171
     0
290
     0
174
     0
 93
        5
 44
0.0
173
     0
291
     0
 45
0.0
1001
ACAD
1000
AcDbSavedByObjectVersion
1070
     0
  0
VISUALSTYLE
  5
3E
102
{ACAD_REACTORS
330
2A
102
}
102
{ACAD_XDICTIONARY
360
45E
102
}
330
2A
100
AcDbVisualStyle
  2
Shades of Gray
 70
    23
 71
     2
 72
     2
 73
     3
 90
        0
 40
0.6
 41
30.0
 62
     5
 63
     7
 74
     2
 91
        2
 64
     7
 65
     7
 75
     1
175
     1
 42
40.0
 92
        8
 66
     7
 43
1.0
 76
     1
 77
     6
 78
     2
 67
     7
 79
     3
170
     0
171
     0
290
     0
174
     0
 93
        1
 44
0.0
173
     0
291
     0
 45
0.0
1001
ACAD
1000
AcDbSavedByObjectVersion
1070
     0
  0
VISUALSTYLE
  5
3F
102
{ACAD_REACTORS
330
2A
102
}
102
{ACAD_XDICTIONARY
360
460
102
}
330
2A
100
AcDbVisualStyle
  2
Sketchy
 70
    24
 71
     1
 72
     2
 73
     2
 90
        0
 40
0.6
 41
30.0
 62
     5
 63
     7
 74
     2
 91
        2
 64
     7
 65
     7
 75
     1
175
     1
 42
40.0
 92
       11
 66
     7
 43
1.0
 76
     1
 77
     6
 78
     2
 67
     7
 79
     6
170
     0
171
     0
290
     0
174
     0
 93
        1
 44
0.0
173
     0
291
     0
 45
0.0
1001
ACAD
1000
AcDbSavedByObjectVersion
1070
     0
  0
VISUALSTYLE
  5
37
102
{ACAD_REACTORS
330
2A
102
}
102
{ACAD_XDICTIONARY
360
450
102
}
330
2A
100
AcDbVisualStyle
  2
Thicken
 70
    13
 71
     2
 72
     2
 73
     0
 90
        0
 40
0.6
 41
30.0
 62
     5
 63
     7
 74
     1
 91
        4
 64
     7
 65
   257
 75
     1
175
     1
 42
1.0
 92
       12
 66
     7
 43
1.0
 76
     1
 77
     6
 78
     2
 67
     7
 79
     5
170
     0
171
     0
290
     0
174
     0
 93
        1
 44
0.0
173
     0
291
     1
 45
0.0
1001
ACAD
1000
AcDbSavedByObjectVersion
1070
     0
  0
VISUALSTYLE
  5
30
102
{ACAD_REACTORS
330
2A
102
}
102
{ACAD_XDICTIONARY
360
442
102
}
330
2A
100
AcDbVisualStyle
  2
Wireframe
 70
     5
 71
     0
 72
     2
 73
     0
 90
        0
 40
0.6
 41
30.0
 62
     5
 63
     7
 74
     1
 91
        4
 64
     7
 65
   257
 75
     1
175
     1
 42
1.0
 92
        0
 66
   257
 43
1.0
 76
     1
 77
     6
 78
     2
 67
     7
 79
     3
170
     0
171
     0
290
     0
174
     0
 93
        1
 44
0.0
173
     0
291
     0
 45
0.0
1001
ACAD
1000
AcDbSavedByObjectVersion
1070
     0
  0
VISUALSTYLE
  5
40
102
{ACAD_REACTORS
330
2A
102
}
102
{ACAD_XDICTIONARY
360
462
102
}
330
2A
100
AcDbVisualStyle
  2
X-Ray
 70
    25
 71
     2
 72
     2
 73
     1
 90
        1
 40
0.5
 41
30.0
 62
     5
 63
     7
 74
     1
 91
        0
 64
     7
 65
   257
 75
     1
175
     1
 42
1.0
 92
        8
 66
     7
 43
1.0
 76
     1
 77
     6
 78
     2
 67
     7
 79
     3
170
     0
171
     0
290
     0
174
     0
 93
       13
 44
0.0
173
     0
291
     0
 45
0.0
1001
ACAD
1000
AcDbSavedByObjectVersion
1070
     0
  0
DICTIONARYVAR
  5
436
102
{ACAD_REACTORS
330
42C
102
}
330
42C
100
DictionaryVariables
280
     0
  1
1:1
  0
DICTIONARYVAR
  5
431
102
{ACAD_REACTORS
330
42C
102
}
330
42C
100
DictionaryVariables
280
     0
  1
2
  0
DICTIONARYVAR
  5
432
102
{ACAD_REACTORS
330
42C
102
}
330
42C
100
DictionaryVariables
280
     0
  1
1
  0
DICTIONARYVAR
  5
437
102
{ACAD_REACTORS
330
42C
102
}
330
42C
100
DictionaryVariables
280
     0
  1
1
  0
DICTIONARY
  5
46A
330
45
100
AcDbDictionary
280
     1
281
     1
  3
ACAD_XREC_ROUNDTRIP
360
46B
  0
DICTIONARY
  5
468
330
44
100
AcDbDictionary
280
     1
281
     1
  3
ACAD_XREC_ROUNDTRIP
360
469
  0
DICTIONARY
  5
46C
330
46
100
AcDbDictionary
280
     1
281
     1
  3
ACAD_XREC_ROUNDTRIP
360
46D
  0
DICTIONARY
  5
440
330
2F
100
AcDbDictionary
280
     1
281
     1
  3
ACAD_XREC_ROUNDTRIP
360
441
  0
DICTIONARY
  5
446
330
32
100
AcDbDictionary
280
     1
281
     1
  3
ACAD_XREC_ROUNDTRIP
360
447
  0
DICTIONARY
  5
44E
330
36
100
AcDbDictionary
280
     1
281
     1
  3
ACAD_XREC_ROUNDTRIP
360
44F
  0
DICTIONARY
  5
456
330
3A
100
AcDbDictionary
280
     1
281
     1
  3
ACAD_XREC_ROUNDTRIP
360
457
  0
DICTIONARY
  5
44A
330
34
100
AcDbDictionary
280
     1
281
     1
  3
ACAD_XREC_ROUNDTRIP
360
44B
  0
DICTIONARY
  5
44C
330
35
100
AcDbDictionary
280
     1
281
     1
  3
ACAD_XREC_ROUNDTRIP
360
44D
  0
DICTIONARY
  5
45C
330
3D
100
AcDbDictionary
280
     1
281
     1
  3
ACAD_XREC_ROUNDTRIP
360
45D
  0
DICTIONARY
  5
454
330
39
100
AcDbDictionary
280
     1
281
     1
  3
ACAD_XREC_ROUNDTRIP
360
455
  0
DICTIONARY
  5
438
330
2B
100
AcDbDictionary
280
     1
281
     1
  3
ACAD_XREC_ROUNDTRIP
360
439
  0
DICTIONARY
  5
43A
330
2C
100
AcDbDictionary
280
     1
281
     1
  3
ACAD_XREC_ROUNDTRIP
360
43B
  0
DICTIONARY
  5
43C
330
2D
100
AcDbDictionary
280
     1
281
     1
  3
ACAD_XREC_ROUNDTRIP
360
43D
  0
DICTIONARY
  5
43E
330
2E
100
AcDbDictionary
280
     1
281
     1
  3
ACAD_XREC_ROUNDTRIP
360
43F
  0
DICTIONARY
  5
444
330
31
100
AcDbDictionary
280
     1
281
     1
  3
ACAD_XREC_ROUNDTRIP
360
445
  0
DICTIONARY
  5
458
330
3B
100
AcDbDictionary
280
     1
281
     1
  3
ACAD_XREC_ROUNDTRIP
360
459
  0
DICTIONARY
  5
452
330
38
100
AcDbDictionary
280
     1
281
     1
  3
ACAD_XREC_ROUNDTRIP
360
453
  0
DICTIONARY
  5
45A
330
3C
100
AcDbDictionary
280
     1
281
     1
  3
ACAD_XREC_ROUNDTRIP
360
45B
  0
DICTIONARY
  5
448
330
33
100
AcDbDictionary
280
     1
281
     1
  3
ACAD_XREC_ROUNDTRIP
360
449
  0
DICTIONARY
  5
466
330
42
100
AcDbDictionary
280
     1
281
     1
  3
ACAD_XREC_ROUNDTRIP
360
467
  0
DICTIONARY
  5
464
330
41
100
AcDbDictionary
280
     1
281
     1
  3
ACAD_XREC_ROUNDTRIP
360
465
  0
DICTIONARY
  5
45E
330
3E
100
AcDbDictionary
280
     1
281
     1
  3
ACAD_XREC_ROUNDTRIP
360
45F
  0
DICTIONARY
  5
460
330
3F
100
AcDbDictionary
280
     1
281
     1
  3
ACAD_XREC_ROUNDTRIP
360
461
  0
DICTIONARY
  5
450
330
37
100
AcDbDictionary
280
     1
281
     1
  3
ACAD_XREC_ROUNDTRIP
360
451
  0
DICTIONARY
  5
442
330
30
100
AcDbDictionary
280
     1
281
     1
  3
ACAD_XREC_ROUNDTRIP
360
443
  0
DICTIONARY
  5
462
330
40
100
AcDbDictionary
280
     1
281
     1
  3
ACAD_XREC_ROUNDTRIP
360
463
  0
XRECORD
  5
46B
102
{ACAD_REACTORS
330
46A
102
}
330
46A
100
AcDbXrecord
280
     1
102
MATERIAL
148
0.0
149
0.0
149
0.0
 93
        0
 94
      127
282
     0
 72
     1
 77
     1
171
     1
175
     1
179
     1
273
     0
  0
XRECORD
  5
469
102
{ACAD_REACTORS
330
468
102
}
330
468
100
AcDbXrecord
280
     1
102
MATERIAL
148
0.0
149
0.0
149
0.0
 93
        0
 94
      127
282
     0
 72
     1
 77
     1
171
     1
175
     1
179
     1
273
     0
  0
XRECORD
  5
46D
102
{ACAD_REACTORS
330
46C
102
}
330
46C
100
AcDbXrecord
280
     1
102
MATERIAL
148
0.0
149
0.0
149
0.0
 93
        0
 94
      127
282
     0
 72
     1
 77
     1
171
     1
175
     1
179
     1
273
     0
  0
XRECORD
  5
441
102
{ACAD_REACTORS
330
440
102
}
330
440
100
AcDbXrecord
280
     1
102
RTVSPropertyOp0
 70
     1
102
RTVSPropertyOp1
 70
     1
102
RTVSPropertyOp2
 70
     1
102
RTVSPropertyOp3
 70
     1
102
RTVSPropertyOp4
 70
     1
102
RTVSPropertyOp5
 70
     1
102
RTVSPropertyOp6
 70
     1
102
RTVSPropertyOp7
 70
     1
102
RTVSPropertyOp8
 70
     1
102
RTVSPropertyOp9
 70
     1
102
RTVSPropertyOp10
 70
     1
102
RTVSPropertyOp11
 70
     1
102
RTVSPropertyOp12
 70
     1
102
RTVSPropertyOp13
 70
     1
102
RTVSPropertyOp14
 70
     1
102
RTVSPropertyOp15
 70
     1
102
RTVSPropertyOp16
 70
     1
102
RTVSPropertyOp17
 70
     1
102
RTVSPropertyOp18
 70
     1
102
RTVSPropertyOp19
 70
     1
102
RTVSPropertyOp20
 70
     1
102
RTVSPropertyOp21
 70
     1
102
RTVSPropertyOp22
 70
     1
102
RTVSPropertyOp23
 70
     1
102
RTVSPropertyOp24
 70
     1
102
RTVSPropertyOp25
 70
     1
102
RTVSPropertyOp26
 70
     1
102
RTVSPropertyOp27
 70
     1
102
RTVSPropertyOp28
 70
     1
102
RTVSPropertyOp29
 70
     1
102
RTVSPropertyOp30
 70
     1
102
RTVSPropertyOp31
 70
     1
102
RTVSPropertyOp32
 70
     1
102
RTVSPropertyOp33
 70
     1
102
RTVSPropertyOp34
 70
     1
102
RTVSPropertyOp35
 70
     1
102
RTVSPropertyOp36
 70
     1
102
RTVSPropertyOp37
 70
     1
102
RTVSPropertyOp38
 70
     1
102
RTVSPropertyOp39
 70
     1
102
RTVSPropertyOp40
 70
     1
102
RTVSPropertyOp41
 70
     1
102
RTVSPropertyOp42
 70
     1
102
RTVSPropertyOp43
 70
     1
102
RTVSPropertyOp44
 70
     1
102
RTVSPropertyOp45
 70
     1
102
RTVSPropertyOp46
 70
     1
102
RTVSPropertyOp47
 70
     1
102
RTVSPropertyOp48
 70
     1
102
RTVSPropertyOp49
 70
     1
102
RTVSPropertyOp50
 70
     1
102
RTVSPropertyOp51
 70
     0
102
RTVSPropertyOp52
 70
     0
102
RTVSPropertyOp53
 70
     1
102
RTVSPropertyOp54
 70
     1
102
RTVSPropertyOp55
 70
     1
102
RTVSPropertyOp56
 70
     1
102
RTVSPropertyOp57
 70
     1
102
RTVSPost2010Prop28
280
     1
102
RTVSPost2010PropOp28
 70
     1
102
RTVSPost2010Prop29
280
     1
102
RTVSPost2010PropOp29
 70
     1
102
RTVSPost2010Prop30
280
     0
102
RTVSPost2010PropOp30
 70
     1
102
RTVSPost2010Prop31
280
     0
102
RTVSPost2010PropOp31
 70
     1
102
RTVSPost2010Prop32
280
     0
102
RTVSPost2010PropOp32
 70
     1
102
RTVSPost2010Prop33
280
     0
102
RTVSPost2010PropOp33
 70
     1
102
RTVSPost2010Prop34
280
     0
102
RTVSPost2010PropOp34
 70
     1
102
RTVSPost2010Prop35
280
     0
102
RTVSPost2010PropOp35
 70
     1
102
RTVSPost2010Prop36
280
     0
102
RTVSPost2010PropOp36
 70
     1
102
RTVSPost2010Prop37
 90
       50
102
RTVSPost2010PropOp37
 70
     1
102
RTVSPost2010Prop38
140
0.0
102
RTVSPost2010PropOp38
 70
     1
102
RTVSPost2010Prop39
140
1.0
102
RTVSPost2010PropOp39
 70
     1
102
RTVSPost2010Prop40
 90
        0
102
RTVSPost2010PropOp40
 70
     1
102
RTVSPost2010Prop41ColorIndex
 90
       18
102
RTVSPost2010Prop41ColorRGB
 90
        0
102
RTVSPost2010PropOp41
 70
     1
102
RTVSPost2010Prop42
 90
       50
102
RTVSPost2010PropOp42
 70
     1
102
RTVSPost2010Prop43
 90
        3
102
RTVSPost2010PropOp43
 70
     1
102
RTVSPost2010Prop44ColorIndex
 90
        5
102
RTVSPost2010Prop44ColorRGB
 90
      255
102
RTVSPost2010PropOp44
 70
     1
102
RTVSPost2010Prop45
280
     0
102
RTVSPost2010PropOp45
 70
     1
102
RTVSPost2010Prop46
 90
       50
102
RTVSPost2010PropOp46
 70
     1
102
RTVSPost2010Prop47
 90
       50
102
RTVSPost2010PropOp47
 70
     1
102
RTVSPost2010Prop48
 90
       50
102
RTVSPost2010PropOp48
 70
     1
102
RTVSPost2010Prop49
280
     0
102
RTVSPost2010PropOp49
 70
     1
102
RTVSPost2010Prop50
 90
       50
102
RTVSPost2010PropOp50
 70
     1
102
RTVSPost2010Prop51ColorIndex
 90
      256
102
RTVSPost2010Prop51ColorRGB
 90
-16777216
102
RTVSPost2010PropOp51
 70
     0
102
RTVSPost2010Prop52
140
1.0
102
RTVSPost2010PropOp52
 70
     0
102
RTVSPost2010Prop53
 90
        2
102
RTVSPost2010PropOp53
 70
     1
102
RTVSPost2010Prop54
  1
strokes_ogs.tif
102
RTVSPost2010PropOp54
 70
     1
102
RTVSPost2010Prop55
280
     0
102
RTVSPost2010PropOp55
 70
     1
102
RTVSPost2010Prop56
140
1.0
102
RTVSPost2010PropOp56
 70
     1
102
RTVSPost2010Prop57
140
1.0
102
RTVSPost2010PropOp57
 70
     1
  0
XRECORD
  5
447
102
{ACAD_REACTORS
330
446
102
}
330
446
100
AcDbXrecord
280
     1
102
RTVSPropertyOp0
 70
     1
102
RTVSPropertyOp1
 70
     1
102
RTVSPropertyOp2
 70
     1
102
RTVSPropertyOp3
 70
     1
102
RTVSPropertyOp4
 70
     1
102
RTVSPropertyOp5
 70
     1
102
RTVSPropertyOp6
 70
     1
102
RTVSPropertyOp7
 70
     1
102
RTVSPropertyOp8
 70
     1
102
RTVSPropertyOp9
 70
     1
102
RTVSPropertyOp10
 70
     1
102
RTVSPropertyOp11
 70
     1
102
RTVSPropertyOp12
 70
     1
102
RTVSPropertyOp13
 70
     1
102
RTVSPropertyOp14
 70
     1
102
RTVSPropertyOp15
 70
     1
102
RTVSPropertyOp16
 70
     1
102
RTVSPropertyOp17
 70
     1
102
RTVSPropertyOp18
 70
     1
102
RTVSPropertyOp19
 70
     1
102
RTVSPropertyOp20
 70
     1
102
RTVSPropertyOp21
 70
     1
102
RTVSPropertyOp22
 70
     1
102
RTVSPropertyOp23
 70
     1
102
RTVSPropertyOp24
 70
     1
102
RTVSPropertyOp25
 70
     1
102
RTVSPropertyOp26
 70
     1
102
RTVSPropertyOp27
 70
     1
102
RTVSPropertyOp28
 70
     1
102
RTVSPropertyOp29
 70
     1
102
RTVSPropertyOp30
 70
     1
102
RTVSPropertyOp31
 70
     1
102
RTVSPropertyOp32
 70
     1
102
RTVSPropertyOp33
 70
     1
102
RTVSPropertyOp34
 70
     1
102
RTVSPropertyOp35
 70
     1
102
RTVSPropertyOp36
 70
     1
102
RTVSPropertyOp37
 70
     1
102
RTVSPropertyOp38
 70
     1
102
RTVSPropertyOp39
 70
     1
102
RTVSPropertyOp40
 70
     1
102
RTVSPropertyOp41
 70
     1
102
RTVSPropertyOp42
 70
     1
102
RTVSPropertyOp43
 70
     1
102
RTVSPropertyOp44
 70
     1
102
RTVSPropertyOp45
 70
     1
102
RTVSPropertyOp46
 70
     1
102
RTVSPropertyOp47
 70
     1
102
RTVSPropertyOp48
 70
     1
102
RTVSPropertyOp49
 70
     1
102
RTVSPropertyOp50
 70
     1
102
RTVSPropertyOp51
 70
     0
102
RTVSPropertyOp52
 70
     0
102
RTVSPropertyOp53
 70
     1
102
RTVSPropertyOp54
 70
     1
102
RTVSPropertyOp55
 70
     1
102
RTVSPropertyOp56
 70
     1
102
RTVSPropertyOp57
 70
     1
102
RTVSPost2010Prop28
280
     0
102
RTVSPost2010PropOp28
 70
     1
102
RTVSPost2010Prop29
280
     1
102
RTVSPost2010PropOp29
 70
     1
102
RTVSPost2010Prop30
280
     1
102
RTVSPost2010PropOp30
 70
     1
102
RTVSPost2010Prop31
280
     0
102
RTVSPost2010PropOp31
 70
     1
102
RTVSPost2010Prop32
280
     0
102
RTVSPost2010PropOp32
 70
     1
102
RTVSPost2010Prop33
280
     0
102
RTVSPost2010PropOp33
 70
     1
102
RTVSPost2010Prop34
280
     0
102
RTVSPost2010PropOp34
 70
     1
102
RTVSPost2010Prop35
280
     0
102
RTVSPost2010PropOp35
 70
     1
102
RTVSPost2010Prop36
280
     0
102
RTVSPost2010PropOp36
 70
     1
102
RTVSPost2010Prop37
 90
       50
102
RTVSPost2010PropOp37
 70
     1
102
RTVSPost2010Prop38
140
0.0
102
RTVSPost2010PropOp38
 70
     1
102
RTVSPost2010Prop39
140
1.0
102
RTVSPost2010PropOp39
 70
     1
102
RTVSPost2010Prop40
 90
        0
102
RTVSPost2010PropOp40
 70
     1
102
RTVSPost2010Prop41ColorIndex
 90
       18
102
RTVSPost2010Prop41ColorRGB
 90
        0
102
RTVSPost2010PropOp41
 70
     1
102
RTVSPost2010Prop42
 90
       50
102
RTVSPost2010PropOp42
 70
     1
102
RTVSPost2010Prop43
 90
        3
102
RTVSPost2010PropOp43
 70
     1
102
RTVSPost2010Prop44ColorIndex
 90
        5
102
RTVSPost2010Prop44ColorRGB
 90
      255
102
RTVSPost2010PropOp44
 70
     1
102
RTVSPost2010Prop45
280
     0
102
RTVSPost2010PropOp45
 70
     1
102
RTVSPost2010Prop46
 90
       50
102
RTVSPost2010PropOp46
 70
     1
102
RTVSPost2010Prop47
 90
       50
102
RTVSPost2010PropOp47
 70
     1
102
RTVSPost2010Prop48
 90
       50
102
RTVSPost2010PropOp48
 70
     1
102
RTVSPost2010Prop49
280
     0
102
RTVSPost2010PropOp49
 70
     1
102
RTVSPost2010Prop50
 90
       50
102
RTVSPost2010PropOp50
 70
     1
102
RTVSPost2010Prop51ColorIndex
 90
      256
102
RTVSPost2010Prop51ColorRGB
 90
-16777216
102
RTVSPost2010PropOp51
 70
     0
102
RTVSPost2010Prop52
140
1.0
102
RTVSPost2010PropOp52
 70
     0
102
RTVSPost2010Prop53
 90
        2
102
RTVSPost2010PropOp53
 70
     1
102
RTVSPost2010Prop54
  1
strokes_ogs.tif
102
RTVSPost2010PropOp54
 70
     1
102
RTVSPost2010Prop55
280
     0
102
RTVSPost2010PropOp55
 70
     1
102
RTVSPost2010Prop56
140
1.0
102
RTVSPost2010PropOp56
 70
     1
102
RTVSPost2010Prop57
140
1.0
102
RTVSPost2010PropOp57
 70
     1
  0
XRECORD
  5
44F
102
{ACAD_REACTORS
330
44E
102
}
330
44E
100
AcDbXrecord
280
     1
102
RTVSPropertyOp0
 70
     1
102
RTVSPropertyOp1
 70
     1
102
RTVSPropertyOp2
 70
     1
102
RTVSPropertyOp3
 70
     1
102
RTVSPropertyOp4
 70
     1
102
RTVSPropertyOp5
 70
     1
102
RTVSPropertyOp6
 70
     1
102
RTVSPropertyOp7
 70
     1
102
RTVSPropertyOp8
 70
     1
102
RTVSPropertyOp9
 70
     1
102
RTVSPropertyOp10
 70
     1
102
RTVSPropertyOp11
 70
     1
102
RTVSPropertyOp12
 70
     1
102
RTVSPropertyOp13
 70
     1
102
RTVSPropertyOp14
 70
     1
102
RTVSPropertyOp15
 70
     1
102
RTVSPropertyOp16
 70
     1
102
RTVSPropertyOp17
 70
     1
102
RTVSPropertyOp18
 70
     1
102
RTVSPropertyOp19
 70
     1
102
RTVSPropertyOp20
 70
     1
102
RTVSPropertyOp21
 70
     1
102
RTVSPropertyOp22
 70
     1
102
RTVSPropertyOp23
 70
     1
102
RTVSPropertyOp24
 70
     1
102
RTVSPropertyOp25
 70
     1
102
RTVSPropertyOp26
 70
     1
102
RTVSPropertyOp27
 70
     1
102
RTVSPropertyOp28
 70
     1
102
RTVSPropertyOp29
 70
     1
102
RTVSPropertyOp30
 70
     1
102
RTVSPropertyOp31
 70
     1
102
RTVSPropertyOp32
 70
     1
102
RTVSPropertyOp33
 70
     1
102
RTVSPropertyOp34
 70
     1
102
RTVSPropertyOp35
 70
     1
102
RTVSPropertyOp36
 70
     1
102
RTVSPropertyOp37
 70
     1
102
RTVSPropertyOp38
 70
     1
102
RTVSPropertyOp39
 70
     1
102
RTVSPropertyOp40
 70
     1
102
RTVSPropertyOp41
 70
     1
102
RTVSPropertyOp42
 70
     1
102
RTVSPropertyOp43
 70
     1
102
RTVSPropertyOp44
 70
     1
102
RTVSPropertyOp45
 70
     1
102
RTVSPropertyOp46
 70
     1
102
RTVSPropertyOp47
 70
     1
102
RTVSPropertyOp48
 70
     1
102
RTVSPropertyOp49
 70
     1
102
RTVSPropertyOp50
 70
     1
102
RTVSPropertyOp51
 70
     0
102
RTVSPropertyOp52
 70
     0
102
RTVSPropertyOp53
 70
     1
102
RTVSPropertyOp54
 70
     1
102
RTVSPropertyOp55
 70
     1
102
RTVSPropertyOp56
 70
     1
102
RTVSPropertyOp57
 70
     1
102
RTVSPost2010Prop28
280
     0
102
RTVSPost2010PropOp28
 70
     1
102
RTVSPost2010Prop29
280
     1
102
RTVSPost2010PropOp29
 70
     1
102
RTVSPost2010Prop30
280
     1
102
RTVSPost2010PropOp30
 70
     1
102
RTVSPost2010Prop31
280
     0
102
RTVSPost2010PropOp31
 70
     1
102
RTVSPost2010Prop32
280
     0
102
RTVSPost2010PropOp32
 70
     1
102
RTVSPost2010Prop33
280
     0
102
RTVSPost2010PropOp33
 70
     1
102
RTVSPost2010Prop34
280
     0
102
RTVSPost2010PropOp34
 70
     1
102
RTVSPost2010Prop35
280
     0
102
RTVSPost2010PropOp35
 70
     1
102
RTVSPost2010Prop36
280
     0
102
RTVSPost2010PropOp36
 70
     1
102
RTVSPost2010Prop37
 90
       50
102
RTVSPost2010PropOp37
 70
     1
102
RTVSPost2010Prop38
140
0.0
102
RTVSPost2010PropOp38
 70
     1
102
RTVSPost2010Prop39
140
1.0
102
RTVSPost2010PropOp39
 70
     1
102
RTVSPost2010Prop40
 90
        0
102
RTVSPost2010PropOp40
 70
     1
102
RTVSPost2010Prop41ColorIndex
 90
       18
102
RTVSPost2010Prop41ColorRGB
 90
        0
102
RTVSPost2010PropOp41
 70
     1
102
RTVSPost2010Prop42
 90
       50
102
RTVSPost2010PropOp42
 70
     1
102
RTVSPost2010Prop43
 90
        3
102
RTVSPost2010PropOp43
 70
     1
102
RTVSPost2010Prop44ColorIndex
 90
        5
102
RTVSPost2010Prop44ColorRGB
 90
      255
102
RTVSPost2010PropOp44
 70
     1
102
RTVSPost2010Prop45
280
     0
102
RTVSPost2010PropOp45
 70
     1
102
RTVSPost2010Prop46
 90
       50
102
RTVSPost2010PropOp46
 70
     1
102
RTVSPost2010Prop47
 90
       50
102
RTVSPost2010PropOp47
 70
     1
102
RTVSPost2010Prop48
 90
       50
102
RTVSPost2010PropOp48
 70
     1
102
RTVSPost2010Prop49
280
     0
102
RTVSPost2010PropOp49
 70
     1
102
RTVSPost2010Prop50
 90
       50
102
RTVSPost2010PropOp50
 70
     1
102
RTVSPost2010Prop51ColorIndex
 90
      256
102
RTVSPost2010Prop51ColorRGB
 90
-16777216
102
RTVSPost2010PropOp51
 70
     0
102
RTVSPost2010Prop52
140
1.0
102
RTVSPost2010PropOp52
 70
     0
102
RTVSPost2010Prop53
 90
        2
102
RTVSPost2010PropOp53
 70
     1
102
RTVSPost2010Prop54
  1
strokes_ogs.tif
102
RTVSPost2010PropOp54
 70
     1
102
RTVSPost2010Prop55
280
     0
102
RTVSPost2010PropOp55
 70
     1
102
RTVSPost2010Prop56
140
1.0
102
RTVSPost2010PropOp56
 70
     1
102
RTVSPost2010Prop57
140
1.0
102
RTVSPost2010PropOp57
 70
     1
  0
XRECORD
  5
457
102
{ACAD_REACTORS
330
456
102
}
330
456
100
AcDbXrecord
280
     1
102
RTVSPropertyOp0
 70
     1
102
RTVSPropertyOp1
 70
     1
102
RTVSPropertyOp2
 70
     1
102
RTVSPropertyOp3
 70
     1
102
RTVSPropertyOp4
 70
     1
102
RTVSPropertyOp5
 70
     1
102
RTVSPropertyOp6
 70
     1
102
RTVSPropertyOp7
 70
     1
102
RTVSPropertyOp8
 70
     1
102
RTVSPropertyOp9
 70
     1
102
RTVSPropertyOp10
 70
     1
102
RTVSPropertyOp11
 70
     1
102
RTVSPropertyOp12
 70
     1
102
RTVSPropertyOp13
 70
     1
102
RTVSPropertyOp14
 70
     1
102
RTVSPropertyOp15
 70
     1
102
RTVSPropertyOp16
 70
     1
102
RTVSPropertyOp17
 70
     1
102
RTVSPropertyOp18
 70
     1
102
RTVSPropertyOp19
 70
     1
102
RTVSPropertyOp20
 70
     1
102
RTVSPropertyOp21
 70
     1
102
RTVSPropertyOp22
 70
     1
102
RTVSPropertyOp23
 70
     1
102
RTVSPropertyOp24
 70
     1
102
RTVSPropertyOp25
 70
     1
102
RTVSPropertyOp26
 70
     1
102
RTVSPropertyOp27
 70
     1
102
RTVSPropertyOp28
 70
     1
102
RTVSPropertyOp29
 70
     1
102
RTVSPropertyOp30
 70
     1
102
RTVSPropertyOp31
 70
     1
102
RTVSPropertyOp32
 70
     1
102
RTVSPropertyOp33
 70
     1
102
RTVSPropertyOp34
 70
     1
102
RTVSPropertyOp35
 70
     1
102
RTVSPropertyOp36
 70
     1
102
RTVSPropertyOp37
 70
     1
102
RTVSPropertyOp38
 70
     1
102
RTVSPropertyOp39
 70
     1
102
RTVSPropertyOp40
 70
     1
102
RTVSPropertyOp41
 70
     1
102
RTVSPropertyOp42
 70
     1
102
RTVSPropertyOp43
 70
     1
102
RTVSPropertyOp44
 70
     1
102
RTVSPropertyOp45
 70
     1
102
RTVSPropertyOp46
 70
     1
102
RTVSPropertyOp47
 70
     1
102
RTVSPropertyOp48
 70
     1
102
RTVSPropertyOp49
 70
     1
102
RTVSPropertyOp50
 70
     1
102
RTVSPropertyOp51
 70
     0
102
RTVSPropertyOp52
 70
     0
102
RTVSPropertyOp53
 70
     1
102
RTVSPropertyOp54
 70
     1
102
RTVSPropertyOp55
 70
     1
102
RTVSPropertyOp56
 70
     1
102
RTVSPropertyOp57
 70
     1
102
RTVSPost2010Prop28
280
     0
102
RTVSPost2010PropOp28
 70
     1
102
RTVSPost2010Prop29
280
     1
102
RTVSPost2010PropOp29
 70
     1
102
RTVSPost2010Prop30
280
     1
102
RTVSPost2010PropOp30
 70
     1
102
RTVSPost2010Prop31
280
     0
102
RTVSPost2010PropOp31
 70
     1
102
RTVSPost2010Prop32
280
     0
102
RTVSPost2010PropOp32
 70
     1
102
RTVSPost2010Prop33
280
     0
102
RTVSPost2010PropOp33
 70
     1
102
RTVSPost2010Prop34
280
     0
102
RTVSPost2010PropOp34
 70
     1
102
RTVSPost2010Prop35
280
     0
102
RTVSPost2010PropOp35
 70
     1
102
RTVSPost2010Prop36
280
     0
102
RTVSPost2010PropOp36
 70
     1
102
RTVSPost2010Prop37
 90
       50
102
RTVSPost2010PropOp37
 70
     1
102
RTVSPost2010Prop38
140
0.0
102
RTVSPost2010PropOp38
 70
     1
102
RTVSPost2010Prop39
140
1.0
102
RTVSPost2010PropOp39
 70
     1
102
RTVSPost2010Prop40
 90
        0
102
RTVSPost2010PropOp40
 70
     1
102
RTVSPost2010Prop41ColorIndex
 90
       18
102
RTVSPost2010Prop41ColorRGB
 90
        0
102
RTVSPost2010PropOp41
 70
     1
102
RTVSPost2010Prop42
 90
       50
102
RTVSPost2010PropOp42
 70
     1
102
RTVSPost2010Prop43
 90
        3
102
RTVSPost2010PropOp43
 70
     1
102
RTVSPost2010Prop44ColorIndex
 90
        5
102
RTVSPost2010Prop44ColorRGB
 90
      255
102
RTVSPost2010PropOp44
 70
     1
102
RTVSPost2010Prop45
280
     0
102
RTVSPost2010PropOp45
 70
     1
102
RTVSPost2010Prop46
 90
       50
102
RTVSPost2010PropOp46
 70
     1
102
RTVSPost2010Prop47
 90
       50
102
RTVSPost2010PropOp47
 70
     1
102
RTVSPost2010Prop48
 90
       50
102
RTVSPost2010PropOp48
 70
     1
102
RTVSPost2010Prop49
280
     0
102
RTVSPost2010PropOp49
 70
     1
102
RTVSPost2010Prop50
 90
       50
102
RTVSPost2010PropOp50
 70
     1
102
RTVSPost2010Prop51ColorIndex
 90
      256
102
RTVSPost2010Prop51ColorRGB
 90
-16777216
102
RTVSPost2010PropOp51
 70
     0
102
RTVSPost2010Prop52
140
1.0
102
RTVSPost2010PropOp52
 70
     0
102
RTVSPost2010Prop53
 90
        2
102
RTVSPost2010PropOp53
 70
     1
102
RTVSPost2010Prop54
  1
strokes_ogs.tif
102
RTVSPost2010PropOp54
 70
     1
102
RTVSPost2010Prop55
280
     0
102
RTVSPost2010PropOp55
 70
     1
102
RTVSPost2010Prop56
140
1.0
102
RTVSPost2010PropOp56
 70
     1
102
RTVSPost2010Prop57
140
1.0
102
RTVSPost2010PropOp57
 70
     1
  0
XRECORD
  5
44B
102
{ACAD_REACTORS
330
44A
102
}
330
44A
100
AcDbXrecord
280
     1
102
RTVSPropertyOp0
 70
     1
102
RTVSPropertyOp1
 70
     1
102
RTVSPropertyOp2
 70
     1
102
RTVSPropertyOp3
 70
     1
102
RTVSPropertyOp4
 70
     1
102
RTVSPropertyOp5
 70
     1
102
RTVSPropertyOp6
 70
     1
102
RTVSPropertyOp7
 70
     1
102
RTVSPropertyOp8
 70
     1
102
RTVSPropertyOp9
 70
     1
102
RTVSPropertyOp10
 70
     1
102
RTVSPropertyOp11
 70
     1
102
RTVSPropertyOp12
 70
     1
102
RTVSPropertyOp13
 70
     1
102
RTVSPropertyOp14
 70
     1
102
RTVSPropertyOp15
 70
     1
102
RTVSPropertyOp16
 70
     1
102
RTVSPropertyOp17
 70
     1
102
RTVSPropertyOp18
 70
     1
102
RTVSPropertyOp19
 70
     1
102
RTVSPropertyOp20
 70
     1
102
RTVSPropertyOp21
 70
     1
102
RTVSPropertyOp22
 70
     1
102
RTVSPropertyOp23
 70
     1
102
RTVSPropertyOp24
 70
     1
102
RTVSPropertyOp25
 70
     1
102
RTVSPropertyOp26
 70
     1
102
RTVSPropertyOp27
 70
     1
102
RTVSPropertyOp28
 70
     1
102
RTVSPropertyOp29
 70
     1
102
RTVSPropertyOp30
 70
     1
102
RTVSPropertyOp31
 70
     1
102
RTVSPropertyOp32
 70
     1
102
RTVSPropertyOp33
 70
     1
102
RTVSPropertyOp34
 70
     1
102
RTVSPropertyOp35
 70
     1
102
RTVSPropertyOp36
 70
     1
102
RTVSPropertyOp37
 70
     1
102
RTVSPropertyOp38
 70
     1
102
RTVSPropertyOp39
 70
     1
102
RTVSPropertyOp40
 70
     1
102
RTVSPropertyOp41
 70
     1
102
RTVSPropertyOp42
 70
     1
102
RTVSPropertyOp43
 70
     1
102
RTVSPropertyOp44
 70
     1
102
RTVSPropertyOp45
 70
     1
102
RTVSPropertyOp46
 70
     1
102
RTVSPropertyOp47
 70
     1
102
RTVSPropertyOp48
 70
     1
102
RTVSPropertyOp49
 70
     1
102
RTVSPropertyOp50
 70
     1
102
RTVSPropertyOp51
 70
     0
102
RTVSPropertyOp52
 70
     0
102
RTVSPropertyOp53
 70
     1
102
RTVSPropertyOp54
 70
     1
102
RTVSPropertyOp55
 70
     1
102
RTVSPropertyOp56
 70
     1
102
RTVSPropertyOp57
 70
     1
102
RTVSPost2010Prop28
280
     0
102
RTVSPost2010PropOp28
 70
     1
102
RTVSPost2010Prop29
280
     1
102
RTVSPost2010PropOp29
 70
     1
102
RTVSPost2010Prop30
280
     1
102
RTVSPost2010PropOp30
 70
     1
102
RTVSPost2010Prop31
280
     0
102
RTVSPost2010PropOp31
 70
     1
102
RTVSPost2010Prop32
280
     0
102
RTVSPost2010PropOp32
 70
     1
102
RTVSPost2010Prop33
280
     0
102
RTVSPost2010PropOp33
 70
     1
102
RTVSPost2010Prop34
280
     0
102
RTVSPost2010PropOp34
 70
     1
102
RTVSPost2010Prop35
280
     0
102
RTVSPost2010PropOp35
 70
     1
102
RTVSPost2010Prop36
280
     0
102
RTVSPost2010PropOp36
 70
     1
102
RTVSPost2010Prop37
 90
       50
102
RTVSPost2010PropOp37
 70
     1
102
RTVSPost2010Prop38
140
0.0
102
RTVSPost2010PropOp38
 70
     1
102
RTVSPost2010Prop39
140
1.0
102
RTVSPost2010PropOp39
 70
     1
102
RTVSPost2010Prop40
 90
        0
102
RTVSPost2010PropOp40
 70
     1
102
RTVSPost2010Prop41ColorIndex
 90
       18
102
RTVSPost2010Prop41ColorRGB
 90
        0
102
RTVSPost2010PropOp41
 70
     1
102
RTVSPost2010Prop42
 90
       50
102
RTVSPost2010PropOp42
 70
     1
102
RTVSPost2010Prop43
 90
        3
102
RTVSPost2010PropOp43
 70
     1
102
RTVSPost2010Prop44ColorIndex
 90
        5
102
RTVSPost2010Prop44ColorRGB
 90
      255
102
RTVSPost2010PropOp44
 70
     1
102
RTVSPost2010Prop45
280
     0
102
RTVSPost2010PropOp45
 70
     1
102
RTVSPost2010Prop46
 90
       50
102
RTVSPost2010PropOp46
 70
     1
102
RTVSPost2010Prop47
 90
       50
102
RTVSPost2010PropOp47
 70
     1
102
RTVSPost2010Prop48
 90
       50
102
RTVSPost2010PropOp48
 70
     1
102
RTVSPost2010Prop49
280
     0
102
RTVSPost2010PropOp49
 70
     1
102
RTVSPost2010Prop50
 90
       50
102
RTVSPost2010PropOp50
 70
     1
102
RTVSPost2010Prop51ColorIndex
 90
      256
102
RTVSPost2010Prop51ColorRGB
 90
-16777216
102
RTVSPost2010PropOp51
 70
     0
102
RTVSPost2010Prop52
140
1.0
102
RTVSPost2010PropOp52
 70
     0
102
RTVSPost2010Prop53
 90
        2
102
RTVSPost2010PropOp53
 70
     1
102
RTVSPost2010Prop54
  1
strokes_ogs.tif
102
RTVSPost2010PropOp54
 70
     1
102
RTVSPost2010Prop55
280
     0
102
RTVSPost2010PropOp55
 70
     1
102
RTVSPost2010Prop56
140
1.0
102
RTVSPost2010PropOp56
 70
     1
102
RTVSPost2010Prop57
140
1.0
102
RTVSPost2010PropOp57
 70
     1
  0
XRECORD
  5
44D
102
{ACAD_REACTORS
330
44C
102
}
330
44C
100
AcDbXrecord
280
     1
102
RTVSPropertyOp0
 70
     1
102
RTVSPropertyOp1
 70
     1
102
RTVSPropertyOp2
 70
     1
102
RTVSPropertyOp3
 70
     1
102
RTVSPropertyOp4
 70
     1
102
RTVSPropertyOp5
 70
     1
102
RTVSPropertyOp6
 70
     1
102
RTVSPropertyOp7
 70
     1
102
RTVSPropertyOp8
 70
     1
102
RTVSPropertyOp9
 70
     1
102
RTVSPropertyOp10
 70
     1
102
RTVSPropertyOp11
 70
     1
102
RTVSPropertyOp12
 70
     1
102
RTVSPropertyOp13
 70
     1
102
RTVSPropertyOp14
 70
     1
102
RTVSPropertyOp15
 70
     1
102
RTVSPropertyOp16
 70
     1
102
RTVSPropertyOp17
 70
     1
102
RTVSPropertyOp18
 70
     1
102
RTVSPropertyOp19
 70
     1
102
RTVSPropertyOp20
 70
     1
102
RTVSPropertyOp21
 70
     1
102
RTVSPropertyOp22
 70
     1
102
RTVSPropertyOp23
 70
     1
102
RTVSPropertyOp24
 70
     1
102
RTVSPropertyOp25
 70
     1
102
RTVSPropertyOp26
 70
     1
102
RTVSPropertyOp27
 70
     1
102
RTVSPropertyOp28
 70
     1
102
RTVSPropertyOp29
 70
     1
102
RTVSPropertyOp30
 70
     1
102
RTVSPropertyOp31
 70
     1
102
RTVSPropertyOp32
 70
     1
102
RTVSPropertyOp33
 70
     1
102
RTVSPropertyOp34
 70
     1
102
RTVSPropertyOp35
 70
     1
102
RTVSPropertyOp36
 70
     1
102
RTVSPropertyOp37
 70
     1
102
RTVSPropertyOp38
 70
     1
102
RTVSPropertyOp39
 70
     1
102
RTVSPropertyOp40
 70
     1
102
RTVSPropertyOp41
 70
     1
102
RTVSPropertyOp42
 70
     1
102
RTVSPropertyOp43
 70
     1
102
RTVSPropertyOp44
 70
     1
102
RTVSPropertyOp45
 70
     1
102
RTVSPropertyOp46
 70
     1
102
RTVSPropertyOp47
 70
     1
102
RTVSPropertyOp48
 70
     1
102
RTVSPropertyOp49
 70
     1
102
RTVSPropertyOp50
 70
     1
102
RTVSPropertyOp51
 70
     0
102
RTVSPropertyOp52
 70
     0
102
RTVSPropertyOp53
 70
     1
102
RTVSPropertyOp54
 70
     1
102
RTVSPropertyOp55
 70
     1
102
RTVSPropertyOp56
 70
     1
102
RTVSPropertyOp57
 70
     1
102
RTVSPost2010Prop28
280
     0
102
RTVSPost2010PropOp28
 70
     1
102
RTVSPost2010Prop29
280
     1
102
RTVSPost2010PropOp29
 70
     1
102
RTVSPost2010Prop30
280
     1
102
RTVSPost2010PropOp30
 70
     1
102
RTVSPost2010Prop31
280
     0
102
RTVSPost2010PropOp31
 70
     1
102
RTVSPost2010Prop32
280
     0
102
RTVSPost2010PropOp32
 70
     1
102
RTVSPost2010Prop33
280
     0
102
RTVSPost2010PropOp33
 70
     1
102
RTVSPost2010Prop34
280
     0
102
RTVSPost2010PropOp34
 70
     1
102
RTVSPost2010Prop35
280
     0
102
RTVSPost2010PropOp35
 70
     1
102
RTVSPost2010Prop36
280
     0
102
RTVSPost2010PropOp36
 70
     1
102
RTVSPost2010Prop37
 90
       50
102
RTVSPost2010PropOp37
 70
     1
102
RTVSPost2010Prop38
140
0.0
102
RTVSPost2010PropOp38
 70
     1
102
RTVSPost2010Prop39
140
1.0
102
RTVSPost2010PropOp39
 70
     1
102
RTVSPost2010Prop40
 90
        0
102
RTVSPost2010PropOp40
 70
     1
102
RTVSPost2010Prop41ColorIndex
 90
       18
102
RTVSPost2010Prop41ColorRGB
 90
        0
102
RTVSPost2010PropOp41
 70
     1
102
RTVSPost2010Prop42
 90
       50
102
RTVSPost2010PropOp42
 70
     1
102
RTVSPost2010Prop43
 90
        3
102
RTVSPost2010PropOp43
 70
     1
102
RTVSPost2010Prop44ColorIndex
 90
        5
102
RTVSPost2010Prop44ColorRGB
 90
      255
102
RTVSPost2010PropOp44
 70
     1
102
RTVSPost2010Prop45
280
     0
102
RTVSPost2010PropOp45
 70
     1
102
RTVSPost2010Prop46
 90
       50
102
RTVSPost2010PropOp46
 70
     1
102
RTVSPost2010Prop47
 90
       50
102
RTVSPost2010PropOp47
 70
     1
102
RTVSPost2010Prop48
 90
       50
102
RTVSPost2010PropOp48
 70
     1
102
RTVSPost2010Prop49
280
     0
102
RTVSPost2010PropOp49
 70
     1
102
RTVSPost2010Prop50
 90
       50
102
RTVSPost2010PropOp50
 70
     1
102
RTVSPost2010Prop51ColorIndex
 90
      256
102
RTVSPost2010Prop51ColorRGB
 90
-16777216
102
RTVSPost2010PropOp51
 70
     0
102
RTVSPost2010Prop52
140
1.0
102
RTVSPost2010PropOp52
 70
     0
102
RTVSPost2010Prop53
 90
        2
102
RTVSPost2010PropOp53
 70
     1
102
RTVSPost2010Prop54
  1
strokes_ogs.tif
102
RTVSPost2010PropOp54
 70
     1
102
RTVSPost2010Prop55
280
     0
102
RTVSPost2010PropOp55
 70
     1
102
RTVSPost2010Prop56
140
1.0
102
RTVSPost2010PropOp56
 70
     1
102
RTVSPost2010Prop57
140
1.0
102
RTVSPost2010PropOp57
 70
     1
  0
XRECORD
  5
45D
102
{ACAD_REACTORS
330
45C
102
}
330
45C
100
AcDbXrecord
280
     1
102
RTVSPropertyOp0
 70
     0
102
RTVSPropertyOp1
 70
     0
102
RTVSPropertyOp2
 70
     0
102
RTVSPropertyOp3
 70
     0
102
RTVSPropertyOp4
 70
     0
102
RTVSPropertyOp5
 70
     0
102
RTVSPropertyOp6
 70
     0
102
RTVSPropertyOp7
 70
     0
102
RTVSPropertyOp8
 70
     0
102
RTVSPropertyOp9
 70
     0
102
RTVSPropertyOp10
 70
     0
102
RTVSPropertyOp11
 70
     0
102
RTVSPropertyOp12
 70
     0
102
RTVSPropertyOp13
 70
     0
102
RTVSPropertyOp14
 70
     2
102
RTVSPropertyOp15
 70
     0
102
RTVSPropertyOp16
 70
     0
102
RTVSPropertyOp17
 70
     0
102
RTVSPropertyOp18
 70
     0
102
RTVSPropertyOp19
 70
     0
102
RTVSPropertyOp20
 70
     0
102
RTVSPropertyOp21
 70
     0
102
RTVSPropertyOp22
 70
     0
102
RTVSPropertyOp23
 70
     0
102
RTVSPropertyOp24
 70
     0
102
RTVSPropertyOp25
 70
     0
102
RTVSPropertyOp26
 70
     0
102
RTVSPropertyOp27
 70
     0
102
RTVSPropertyOp28
 70
     0
102
RTVSPropertyOp29
 70
     0
102
RTVSPropertyOp30
 70
     0
102
RTVSPropertyOp31
 70
     0
102
RTVSPropertyOp32
 70
     0
102
RTVSPropertyOp33
 70
     0
102
RTVSPropertyOp34
 70
     0
102
RTVSPropertyOp35
 70
     0
102
RTVSPropertyOp36
 70
     0
102
RTVSPropertyOp37
 70
     0
102
RTVSPropertyOp38
 70
     0
102
RTVSPropertyOp39
 70
     0
102
RTVSPropertyOp40
 70
     0
102
RTVSPropertyOp41
 70
     0
102
RTVSPropertyOp42
 70
     0
102
RTVSPropertyOp43
 70
     0
102
RTVSPropertyOp44
 70
     0
102
RTVSPropertyOp45
 70
     0
102
RTVSPropertyOp46
 70
     0
102
RTVSPropertyOp47
 70
     0
102
RTVSPropertyOp48
 70
     0
102
RTVSPropertyOp49
 70
     0
102
RTVSPropertyOp50
 70
     0
102
RTVSPropertyOp51
 70
     0
102
RTVSPropertyOp52
 70
     0
102
RTVSPropertyOp53
 70
     0
102
RTVSPropertyOp54
 70
     0
102
RTVSPropertyOp55
 70
     0
102
RTVSPropertyOp56
 70
     0
102
RTVSPropertyOp57
 70
     0
102
RTVSPost2010Prop28
280
     0
102
RTVSPost2010PropOp28
 70
     0
102
RTVSPost2010Prop29
280
     1
102
RTVSPost2010PropOp29
 70
     0
102
RTVSPost2010Prop30
280
     1
102
RTVSPost2010PropOp30
 70
     0
102
RTVSPost2010Prop31
280
     0
102
RTVSPost2010PropOp31
 70
     0
102
RTVSPost2010Prop32
280
     0
102
RTVSPost2010PropOp32
 70
     0
102
RTVSPost2010Prop33
280
     0
102
RTVSPost2010PropOp33
 70
     0
102
RTVSPost2010Prop34
280
     0
102
RTVSPost2010PropOp34
 70
     0
102
RTVSPost2010Prop35
280
     0
102
RTVSPost2010PropOp35
 70
     0
102
RTVSPost2010Prop36
280
     0
102
RTVSPost2010PropOp36
 70
     0
102
RTVSPost2010Prop37
 90
       50
102
RTVSPost2010PropOp37
 70
     0
102
RTVSPost2010Prop38
140
0.0
102
RTVSPost2010PropOp38
 70
     0
102
RTVSPost2010Prop39
140
1.0
102
RTVSPost2010PropOp39
 70
     0
102
RTVSPost2010Prop40
 90
        0
102
RTVSPost2010PropOp40
 70
     0
102
RTVSPost2010Prop41ColorIndex
 90
       18
102
RTVSPost2010Prop41ColorRGB
 90
        0
102
RTVSPost2010PropOp41
 70
     0
102
RTVSPost2010Prop42
 90
       50
102
RTVSPost2010PropOp42
 70
     0
102
RTVSPost2010Prop43
 90
        3
102
RTVSPost2010PropOp43
 70
     0
102
RTVSPost2010Prop44ColorIndex
 90
        5
102
RTVSPost2010Prop44ColorRGB
 90
      255
102
RTVSPost2010PropOp44
 70
     0
102
RTVSPost2010Prop45
280
     0
102
RTVSPost2010PropOp45
 70
     0
102
RTVSPost2010Prop46
 90
       50
102
RTVSPost2010PropOp46
 70
     0
102
RTVSPost2010Prop47
 90
       50
102
RTVSPost2010PropOp47
 70
     0
102
RTVSPost2010Prop48
 90
       50
102
RTVSPost2010PropOp48
 70
     0
102
RTVSPost2010Prop49
280
     0
102
RTVSPost2010PropOp49
 70
     0
102
RTVSPost2010Prop50
 90
       50
102
RTVSPost2010PropOp50
 70
     0
102
RTVSPost2010Prop51ColorIndex
 90
      256
102
RTVSPost2010Prop51ColorRGB
 90
-16777216
102
RTVSPost2010PropOp51
 70
     0
102
RTVSPost2010Prop52
140
1.0
102
RTVSPost2010PropOp52
 70
     0
102
RTVSPost2010Prop53
 90
        2
102
RTVSPost2010PropOp53
 70
     0
102
RTVSPost2010Prop54
  1
strokes_ogs.tif
102
RTVSPost2010PropOp54
 70
     0
102
RTVSPost2010Prop55
280
     0
102
RTVSPost2010PropOp55
 70
     0
102
RTVSPost2010Prop56
140
1.0
102
RTVSPost2010PropOp56
 70
     0
102
RTVSPost2010Prop57
140
1.0
102
RTVSPost2010PropOp57
 70
     0
  0
XRECORD
  5
455
102
{ACAD_REACTORS
330
454
102
}
330
454
100
AcDbXrecord
280
     1
102
RTVSPropertyOp0
 70
     1
102
RTVSPropertyOp1
 70
     1
102
RTVSPropertyOp2
 70
     1
102
RTVSPropertyOp3
 70
     1
102
RTVSPropertyOp4
 70
     1
102
RTVSPropertyOp5
 70
     1
102
RTVSPropertyOp6
 70
     1
102
RTVSPropertyOp7
 70
     1
102
RTVSPropertyOp8
 70
     1
102
RTVSPropertyOp9
 70
     1
102
RTVSPropertyOp10
 70
     1
102
RTVSPropertyOp11
 70
     1
102
RTVSPropertyOp12
 70
     1
102
RTVSPropertyOp13
 70
     1
102
RTVSPropertyOp14
 70
     1
102
RTVSPropertyOp15
 70
     1
102
RTVSPropertyOp16
 70
     1
102
RTVSPropertyOp17
 70
     1
102
RTVSPropertyOp18
 70
     1
102
RTVSPropertyOp19
 70
     1
102
RTVSPropertyOp20
 70
     1
102
RTVSPropertyOp21
 70
     1
102
RTVSPropertyOp22
 70
     1
102
RTVSPropertyOp23
 70
     1
102
RTVSPropertyOp24
 70
     1
102
RTVSPropertyOp25
 70
     1
102
RTVSPropertyOp26
 70
     1
102
RTVSPropertyOp27
 70
     1
102
RTVSPropertyOp28
 70
     1
102
RTVSPropertyOp29
 70
     1
102
RTVSPropertyOp30
 70
     1
102
RTVSPropertyOp31
 70
     1
102
RTVSPropertyOp32
 70
     1
102
RTVSPropertyOp33
 70
     1
102
RTVSPropertyOp34
 70
     1
102
RTVSPropertyOp35
 70
     1
102
RTVSPropertyOp36
 70
     1
102
RTVSPropertyOp37
 70
     1
102
RTVSPropertyOp38
 70
     1
102
RTVSPropertyOp39
 70
     1
102
RTVSPropertyOp40
 70
     1
102
RTVSPropertyOp41
 70
     1
102
RTVSPropertyOp42
 70
     1
102
RTVSPropertyOp43
 70
     1
102
RTVSPropertyOp44
 70
     1
102
RTVSPropertyOp45
 70
     1
102
RTVSPropertyOp46
 70
     1
102
RTVSPropertyOp47
 70
     1
102
RTVSPropertyOp48
 70
     1
102
RTVSPropertyOp49
 70
     1
102
RTVSPropertyOp50
 70
     1
102
RTVSPropertyOp51
 70
     0
102
RTVSPropertyOp52
 70
     0
102
RTVSPropertyOp53
 70
     1
102
RTVSPropertyOp54
 70
     1
102
RTVSPropertyOp55
 70
     1
102
RTVSPropertyOp56
 70
     1
102
RTVSPropertyOp57
 70
     1
102
RTVSPost2010Prop28
280
     0
102
RTVSPost2010PropOp28
 70
     1
102
RTVSPost2010Prop29
280
     1
102
RTVSPost2010PropOp29
 70
     1
102
RTVSPost2010Prop30
280
     1
102
RTVSPost2010PropOp30
 70
     1
102
RTVSPost2010Prop31
280
     0
102
RTVSPost2010PropOp31
 70
     1
102
RTVSPost2010Prop32
280
     0
102
RTVSPost2010PropOp32
 70
     1
102
RTVSPost2010Prop33
280
     0
102
RTVSPost2010PropOp33
 70
     1
102
RTVSPost2010Prop34
280
     0
102
RTVSPost2010PropOp34
 70
     1
102
RTVSPost2010Prop35
280
     0
102
RTVSPost2010PropOp35
 70
     1
102
RTVSPost2010Prop36
280
     0
102
RTVSPost2010PropOp36
 70
     1
102
RTVSPost2010Prop37
 90
       50
102
RTVSPost2010PropOp37
 70
     1
102
RTVSPost2010Prop38
140
0.0
102
RTVSPost2010PropOp38
 70
     1
102
RTVSPost2010Prop39
140
1.0
102
RTVSPost2010PropOp39
 70
     1
102
RTVSPost2010Prop40
 90
        0
102
RTVSPost2010PropOp40
 70
     1
102
RTVSPost2010Prop41ColorIndex
 90
       18
102
RTVSPost2010Prop41ColorRGB
 90
        0
102
RTVSPost2010PropOp41
 70
     1
102
RTVSPost2010Prop42
 90
       50
102
RTVSPost2010PropOp42
 70
     1
102
RTVSPost2010Prop43
 90
        3
102
RTVSPost2010PropOp43
 70
     1
102
RTVSPost2010Prop44ColorIndex
 90
        5
102
RTVSPost2010Prop44ColorRGB
 90
      255
102
RTVSPost2010PropOp44
 70
     1
102
RTVSPost2010Prop45
280
     0
102
RTVSPost2010PropOp45
 70
     1
102
RTVSPost2010Prop46
 90
       50
102
RTVSPost2010PropOp46
 70
     1
102
RTVSPost2010Prop47
 90
       50
102
RTVSPost2010PropOp47
 70
     1
102
RTVSPost2010Prop48
 90
       50
102
RTVSPost2010PropOp48
 70
     1
102
RTVSPost2010Prop49
280
     0
102
RTVSPost2010PropOp49
 70
     1
102
RTVSPost2010Prop50
 90
       50
102
RTVSPost2010PropOp50
 70
     1
102
RTVSPost2010Prop51ColorIndex
 90
      256
102
RTVSPost2010Prop51ColorRGB
 90
-16777216
102
RTVSPost2010PropOp51
 70
     0
102
RTVSPost2010Prop52
140
1.0
102
RTVSPost2010PropOp52
 70
     0
102
RTVSPost2010Prop53
 90
        2
102
RTVSPost2010PropOp53
 70
     1
102
RTVSPost2010Prop54
  1
strokes_ogs.tif
102
RTVSPost2010PropOp54
 70
     1
102
RTVSPost2010Prop55
280
     0
102
RTVSPost2010PropOp55
 70
     1
102
RTVSPost2010Prop56
140
1.0
102
RTVSPost2010PropOp56
 70
     1
102
RTVSPost2010Prop57
140
1.0
102
RTVSPost2010PropOp57
 70
     1
  0
XRECORD
  5
439
102
{ACAD_REACTORS
330
438
102
}
330
438
100
AcDbXrecord
280
     1
102
RTVSPropertyOp0
 70
     1
102
RTVSPropertyOp1
 70
     1
102
RTVSPropertyOp2
 70
     1
102
RTVSPropertyOp3
 70
     1
102
RTVSPropertyOp4
 70
     1
102
RTVSPropertyOp5
 70
     1
102
RTVSPropertyOp6
 70
     1
102
RTVSPropertyOp7
 70
     1
102
RTVSPropertyOp8
 70
     1
102
RTVSPropertyOp9
 70
     1
102
RTVSPropertyOp10
 70
     1
102
RTVSPropertyOp11
 70
     1
102
RTVSPropertyOp12
 70
     1
102
RTVSPropertyOp13
 70
     1
102
RTVSPropertyOp14
 70
     1
102
RTVSPropertyOp15
 70
     1
102
RTVSPropertyOp16
 70
     1
102
RTVSPropertyOp17
 70
     1
102
RTVSPropertyOp18
 70
     1
102
RTVSPropertyOp19
 70
     1
102
RTVSPropertyOp20
 70
     1
102
RTVSPropertyOp21
 70
     1
102
RTVSPropertyOp22
 70
     1
102
RTVSPropertyOp23
 70
     1
102
RTVSPropertyOp24
 70
     1
102
RTVSPropertyOp25
 70
     1
102
RTVSPropertyOp26
 70
     1
102
RTVSPropertyOp27
 70
     1
102
RTVSPropertyOp28
 70
     1
102
RTVSPropertyOp29
 70
     1
102
RTVSPropertyOp30
 70
     1
102
RTVSPropertyOp31
 70
     1
102
RTVSPropertyOp32
 70
     1
102
RTVSPropertyOp33
 70
     1
102
RTVSPropertyOp34
 70
     1
102
RTVSPropertyOp35
 70
     1
102
RTVSPropertyOp36
 70
     1
102
RTVSPropertyOp37
 70
     1
102
RTVSPropertyOp38
 70
     1
102
RTVSPropertyOp39
 70
     1
102
RTVSPropertyOp40
 70
     1
102
RTVSPropertyOp41
 70
     1
102
RTVSPropertyOp42
 70
     1
102
RTVSPropertyOp43
 70
     1
102
RTVSPropertyOp44
 70
     1
102
RTVSPropertyOp45
 70
     1
102
RTVSPropertyOp46
 70
     1
102
RTVSPropertyOp47
 70
     1
102
RTVSPropertyOp48
 70
     1
102
RTVSPropertyOp49
 70
     1
102
RTVSPropertyOp50
 70
     1
102
RTVSPropertyOp51
 70
     0
102
RTVSPropertyOp52
 70
     0
102
RTVSPropertyOp53
 70
     1
102
RTVSPropertyOp54
 70
     1
102
RTVSPropertyOp55
 70
     1
102
RTVSPropertyOp56
 70
     1
102
RTVSPropertyOp57
 70
     1
102
RTVSPost2010Prop28
280
     0
102
RTVSPost2010PropOp28
 70
     1
102
RTVSPost2010Prop29
280
     1
102
RTVSPost2010PropOp29
 70
     1
102
RTVSPost2010Prop30
280
     1
102
RTVSPost2010PropOp30
 70
     1
102
RTVSPost2010Prop31
280
     0
102
RTVSPost2010PropOp31
 70
     1
102
RTVSPost2010Prop32
280
     0
102
RTVSPost2010PropOp32
 70
     1
102
RTVSPost2010Prop33
280
     0
102
RTVSPost2010PropOp33
 70
     1
102
RTVSPost2010Prop34
280
     0
102
RTVSPost2010PropOp34
 70
     1
102
RTVSPost2010Prop35
280
     0
102
RTVSPost2010PropOp35
 70
     1
102
RTVSPost2010Prop36
280
     0
102
RTVSPost2010PropOp36
 70
     1
102
RTVSPost2010Prop37
 90
       50
102
RTVSPost2010PropOp37
 70
     1
102
RTVSPost2010Prop38
140
0.0
102
RTVSPost2010PropOp38
 70
     1
102
RTVSPost2010Prop39
140
1.0
102
RTVSPost2010PropOp39
 70
     1
102
RTVSPost2010Prop40
 90
        0
102
RTVSPost2010PropOp40
 70
     1
102
RTVSPost2010Prop41ColorIndex
 90
       18
102
RTVSPost2010Prop41ColorRGB
 90
        0
102
RTVSPost2010PropOp41
 70
     1
102
RTVSPost2010Prop42
 90
       50
102
RTVSPost2010PropOp42
 70
     1
102
RTVSPost2010Prop43
 90
        3
102
RTVSPost2010PropOp43
 70
     1
102
RTVSPost2010Prop44ColorIndex
 90
        5
102
RTVSPost2010Prop44ColorRGB
 90
      255
102
RTVSPost2010PropOp44
 70
     1
102
RTVSPost2010Prop45
280
     0
102
RTVSPost2010PropOp45
 70
     1
102
RTVSPost2010Prop46
 90
       50
102
RTVSPost2010PropOp46
 70
     1
102
RTVSPost2010Prop47
 90
       50
102
RTVSPost2010PropOp47
 70
     1
102
RTVSPost2010Prop48
 90
       50
102
RTVSPost2010PropOp48
 70
     1
102
RTVSPost2010Prop49
280
     0
102
RTVSPost2010PropOp49
 70
     1
102
RTVSPost2010Prop50
 90
       50
102
RTVSPost2010PropOp50
 70
     1
102
RTVSPost2010Prop51ColorIndex
 90
      256
102
RTVSPost2010Prop51ColorRGB
 90
-16777216
102
RTVSPost2010PropOp51
 70
     0
102
RTVSPost2010Prop52
140
1.0
102
RTVSPost2010PropOp52
 70
     0
102
RTVSPost2010Prop53
 90
        2
102
RTVSPost2010PropOp53
 70
     1
102
RTVSPost2010Prop54
  1
strokes_ogs.tif
102
RTVSPost2010PropOp54
 70
     1
102
RTVSPost2010Prop55
280
     0
102
RTVSPost2010PropOp55
 70
     1
102
RTVSPost2010Prop56
140
1.0
102
RTVSPost2010PropOp56
 70
     1
102
RTVSPost2010Prop57
140
1.0
102
RTVSPost2010PropOp57
 70
     1
  0
XRECORD
  5
43B
102
{ACAD_REACTORS
330
43A
102
}
330
43A
100
AcDbXrecord
280
     1
102
RTVSPropertyOp0
 70
     1
102
RTVSPropertyOp1
 70
     1
102
RTVSPropertyOp2
 70
     1
102
RTVSPropertyOp3
 70
     1
102
RTVSPropertyOp4
 70
     1
102
RTVSPropertyOp5
 70
     1
102
RTVSPropertyOp6
 70
     1
102
RTVSPropertyOp7
 70
     1
102
RTVSPropertyOp8
 70
     1
102
RTVSPropertyOp9
 70
     1
102
RTVSPropertyOp10
 70
     1
102
RTVSPropertyOp11
 70
     1
102
RTVSPropertyOp12
 70
     1
102
RTVSPropertyOp13
 70
     1
102
RTVSPropertyOp14
 70
     1
102
RTVSPropertyOp15
 70
     1
102
RTVSPropertyOp16
 70
     1
102
RTVSPropertyOp17
 70
     1
102
RTVSPropertyOp18
 70
     1
102
RTVSPropertyOp19
 70
     1
102
RTVSPropertyOp20
 70
     1
102
RTVSPropertyOp21
 70
     1
102
RTVSPropertyOp22
 70
     1
102
RTVSPropertyOp23
 70
     1
102
RTVSPropertyOp24
 70
     1
102
RTVSPropertyOp25
 70
     1
102
RTVSPropertyOp26
 70
     1
102
RTVSPropertyOp27
 70
     1
102
RTVSPropertyOp28
 70
     1
102
RTVSPropertyOp29
 70
     1
102
RTVSPropertyOp30
 70
     1
102
RTVSPropertyOp31
 70
     1
102
RTVSPropertyOp32
 70
     1
102
RTVSPropertyOp33
 70
     1
102
RTVSPropertyOp34
 70
     1
102
RTVSPropertyOp35
 70
     1
102
RTVSPropertyOp36
 70
     1
102
RTVSPropertyOp37
 70
     1
102
RTVSPropertyOp38
 70
     1
102
RTVSPropertyOp39
 70
     1
102
RTVSPropertyOp40
 70
     1
102
RTVSPropertyOp41
 70
     1
102
RTVSPropertyOp42
 70
     1
102
RTVSPropertyOp43
 70
     1
102
RTVSPropertyOp44
 70
     1
102
RTVSPropertyOp45
 70
     1
102
RTVSPropertyOp46
 70
     1
102
RTVSPropertyOp47
 70
     1
102
RTVSPropertyOp48
 70
     1
102
RTVSPropertyOp49
 70
     1
102
RTVSPropertyOp50
 70
     1
102
RTVSPropertyOp51
 70
     0
102
RTVSPropertyOp52
 70
     0
102
RTVSPropertyOp53
 70
     1
102
RTVSPropertyOp54
 70
     1
102
RTVSPropertyOp55
 70
     1
102
RTVSPropertyOp56
 70
     1
102
RTVSPropertyOp57
 70
     1
102
RTVSPost2010Prop28
280
     0
102
RTVSPost2010PropOp28
 70
     1
102
RTVSPost2010Prop29
280
     1
102
RTVSPost2010PropOp29
 70
     1
102
RTVSPost2010Prop30
280
     1
102
RTVSPost2010PropOp30
 70
     1
102
RTVSPost2010Prop31
280
     0
102
RTVSPost2010PropOp31
 70
     1
102
RTVSPost2010Prop32
280
     0
102
RTVSPost2010PropOp32
 70
     1
102
RTVSPost2010Prop33
280
     0
102
RTVSPost2010PropOp33
 70
     1
102
RTVSPost2010Prop34
280
     0
102
RTVSPost2010PropOp34
 70
     1
102
RTVSPost2010Prop35
280
     0
102
RTVSPost2010PropOp35
 70
     1
102
RTVSPost2010Prop36
280
     0
102
RTVSPost2010PropOp36
 70
     1
102
RTVSPost2010Prop37
 90
       50
102
RTVSPost2010PropOp37
 70
     1
102
RTVSPost2010Prop38
140
0.0
102
RTVSPost2010PropOp38
 70
     1
102
RTVSPost2010Prop39
140
1.0
102
RTVSPost2010PropOp39
 70
     1
102
RTVSPost2010Prop40
 90
        0
102
RTVSPost2010PropOp40
 70
     1
102
RTVSPost2010Prop41ColorIndex
 90
       18
102
RTVSPost2010Prop41ColorRGB
 90
        0
102
RTVSPost2010PropOp41
 70
     1
102
RTVSPost2010Prop42
 90
       50
102
RTVSPost2010PropOp42
 70
     1
102
RTVSPost2010Prop43
 90
        3
102
RTVSPost2010PropOp43
 70
     1
102
RTVSPost2010Prop44ColorIndex
 90
        5
102
RTVSPost2010Prop44ColorRGB
 90
      255
102
RTVSPost2010PropOp44
 70
     1
102
RTVSPost2010Prop45
280
     0
102
RTVSPost2010PropOp45
 70
     1
102
RTVSPost2010Prop46
 90
       50
102
RTVSPost2010PropOp46
 70
     1
102
RTVSPost2010Prop47
 90
       50
102
RTVSPost2010PropOp47
 70
     1
102
RTVSPost2010Prop48
 90
       50
102
RTVSPost2010PropOp48
 70
     1
102
RTVSPost2010Prop49
280
     0
102
RTVSPost2010PropOp49
 70
     1
102
RTVSPost2010Prop50
 90
       50
102
RTVSPost2010PropOp50
 70
     1
102
RTVSPost2010Prop51ColorIndex
 90
      256
102
RTVSPost2010Prop51ColorRGB
 90
-16777216
102
RTVSPost2010PropOp51
 70
     0
102
RTVSPost2010Prop52
140
1.0
102
RTVSPost2010PropOp52
 70
     0
102
RTVSPost2010Prop53
 90
        2
102
RTVSPost2010PropOp53
 70
     1
102
RTVSPost2010Prop54
  1
strokes_ogs.tif
102
RTVSPost2010PropOp54
 70
     1
102
RTVSPost2010Prop55
280
     0
102
RTVSPost2010PropOp55
 70
     1
102
RTVSPost2010Prop56
140
1.0
102
RTVSPost2010PropOp56
 70
     1
102
RTVSPost2010Prop57
140
1.0
102
RTVSPost2010PropOp57
 70
     1
  0
XRECORD
  5
43D
102
{ACAD_REACTORS
330
43C
102
}
330
43C
100
AcDbXrecord
280
     1
102
RTVSPropertyOp0
 70
     1
102
RTVSPropertyOp1
 70
     1
102
RTVSPropertyOp2
 70
     1
102
RTVSPropertyOp3
 70
     1
102
RTVSPropertyOp4
 70
     1
102
RTVSPropertyOp5
 70
     1
102
RTVSPropertyOp6
 70
     1
102
RTVSPropertyOp7
 70
     1
102
RTVSPropertyOp8
 70
     1
102
RTVSPropertyOp9
 70
     1
102
RTVSPropertyOp10
 70
     1
102
RTVSPropertyOp11
 70
     1
102
RTVSPropertyOp12
 70
     1
102
RTVSPropertyOp13
 70
     1
102
RTVSPropertyOp14
 70
     1
102
RTVSPropertyOp15
 70
     1
102
RTVSPropertyOp16
 70
     1
102
RTVSPropertyOp17
 70
     1
102
RTVSPropertyOp18
 70
     1
102
RTVSPropertyOp19
 70
     1
102
RTVSPropertyOp20
 70
     1
102
RTVSPropertyOp21
 70
     1
102
RTVSPropertyOp22
 70
     1
102
RTVSPropertyOp23
 70
     1
102
RTVSPropertyOp24
 70
     1
102
RTVSPropertyOp25
 70
     1
102
RTVSPropertyOp26
 70
     1
102
RTVSPropertyOp27
 70
     1
102
RTVSPropertyOp28
 70
     1
102
RTVSPropertyOp29
 70
     1
102
RTVSPropertyOp30
 70
     1
102
RTVSPropertyOp31
 70
     1
102
RTVSPropertyOp32
 70
     1
102
RTVSPropertyOp33
 70
     1
102
RTVSPropertyOp34
 70
     1
102
RTVSPropertyOp35
 70
     1
102
RTVSPropertyOp36
 70
     1
102
RTVSPropertyOp37
 70
     1
102
RTVSPropertyOp38
 70
     1
102
RTVSPropertyOp39
 70
     1
102
RTVSPropertyOp40
 70
     1
102
RTVSPropertyOp41
 70
     1
102
RTVSPropertyOp42
 70
     1
102
RTVSPropertyOp43
 70
     1
102
RTVSPropertyOp44
 70
     1
102
RTVSPropertyOp45
 70
     1
102
RTVSPropertyOp46
 70
     1
102
RTVSPropertyOp47
 70
     1
102
RTVSPropertyOp48
 70
     1
102
RTVSPropertyOp49
 70
     1
102
RTVSPropertyOp50
 70
     1
102
RTVSPropertyOp51
 70
     0
102
RTVSPropertyOp52
 70
     0
102
RTVSPropertyOp53
 70
     1
102
RTVSPropertyOp54
 70
     1
102
RTVSPropertyOp55
 70
     1
102
RTVSPropertyOp56
 70
     1
102
RTVSPropertyOp57
 70
     1
102
RTVSPost2010Prop28
280
     0
102
RTVSPost2010PropOp28
 70
     1
102
RTVSPost2010Prop29
280
     1
102
RTVSPost2010PropOp29
 70
     1
102
RTVSPost2010Prop30
280
     1
102
RTVSPost2010PropOp30
 70
     1
102
RTVSPost2010Prop31
280
     0
102
RTVSPost2010PropOp31
 70
     1
102
RTVSPost2010Prop32
280
     0
102
RTVSPost2010PropOp32
 70
     1
102
RTVSPost2010Prop33
280
     0
102
RTVSPost2010PropOp33
 70
     1
102
RTVSPost2010Prop34
280
     0
102
RTVSPost2010PropOp34
 70
     1
102
RTVSPost2010Prop35
280
     0
102
RTVSPost2010PropOp35
 70
     1
102
RTVSPost2010Prop36
280
     0
102
RTVSPost2010PropOp36
 70
     1
102
RTVSPost2010Prop37
 90
       50
102
RTVSPost2010PropOp37
 70
     1
102
RTVSPost2010Prop38
140
0.0
102
RTVSPost2010PropOp38
 70
     1
102
RTVSPost2010Prop39
140
1.0
102
RTVSPost2010PropOp39
 70
     1
102
RTVSPost2010Prop40
 90
        0
102
RTVSPost2010PropOp40
 70
     1
102
RTVSPost2010Prop41ColorIndex
 90
       18
102
RTVSPost2010Prop41ColorRGB
 90
        0
102
RTVSPost2010PropOp41
 70
     1
102
RTVSPost2010Prop42
 90
       50
102
RTVSPost2010PropOp42
 70
     1
102
RTVSPost2010Prop43
 90
        3
102
RTVSPost2010PropOp43
 70
     1
102
RTVSPost2010Prop44ColorIndex
 90
        5
102
RTVSPost2010Prop44ColorRGB
 90
      255
102
RTVSPost2010PropOp44
 70
     1
102
RTVSPost2010Prop45
280
     0
102
RTVSPost2010PropOp45
 70
     1
102
RTVSPost2010Prop46
 90
       50
102
RTVSPost2010PropOp46
 70
     1
102
RTVSPost2010Prop47
 90
       50
102
RTVSPost2010PropOp47
 70
     1
102
RTVSPost2010Prop48
 90
       50
102
RTVSPost2010PropOp48
 70
     1
102
RTVSPost2010Prop49
280
     0
102
RTVSPost2010PropOp49
 70
     1
102
RTVSPost2010Prop50
 90
       50
102
RTVSPost2010PropOp50
 70
     1
102
RTVSPost2010Prop51ColorIndex
 90
      256
102
RTVSPost2010Prop51ColorRGB
 90
-16777216
102
RTVSPost2010PropOp51
 70
     0
102
RTVSPost2010Prop52
140
1.0
102
RTVSPost2010PropOp52
 70
     0
102
RTVSPost2010Prop53
 90
        2
102
RTVSPost2010PropOp53
 70
     1
102
RTVSPost2010Prop54
  1
strokes_ogs.tif
102
RTVSPost2010PropOp54
 70
     1
102
RTVSPost2010Prop55
280
     0
102
RTVSPost2010PropOp55
 70
     1
102
RTVSPost2010Prop56
140
1.0
102
RTVSPost2010PropOp56
 70
     1
102
RTVSPost2010Prop57
140
1.0
102
RTVSPost2010PropOp57
 70
     1
  0
XRECORD
  5
43F
102
{ACAD_REACTORS
330
43E
102
}
330
43E
100
AcDbXrecord
280
     1
102
RTVSPropertyOp0
 70
     1
102
RTVSPropertyOp1
 70
     1
102
RTVSPropertyOp2
 70
     1
102
RTVSPropertyOp3
 70
     1
102
RTVSPropertyOp4
 70
     1
102
RTVSPropertyOp5
 70
     1
102
RTVSPropertyOp6
 70
     1
102
RTVSPropertyOp7
 70
     1
102
RTVSPropertyOp8
 70
     1
102
RTVSPropertyOp9
 70
     1
102
RTVSPropertyOp10
 70
     1
102
RTVSPropertyOp11
 70
     1
102
RTVSPropertyOp12
 70
     1
102
RTVSPropertyOp13
 70
     1
102
RTVSPropertyOp14
 70
     1
102
RTVSPropertyOp15
 70
     1
102
RTVSPropertyOp16
 70
     1
102
RTVSPropertyOp17
 70
     1
102
RTVSPropertyOp18
 70
     1
102
RTVSPropertyOp19
 70
     1
102
RTVSPropertyOp20
 70
     1
102
RTVSPropertyOp21
 70
     1
102
RTVSPropertyOp22
 70
     1
102
RTVSPropertyOp23
 70
     1
102
RTVSPropertyOp24
 70
     1
102
RTVSPropertyOp25
 70
     1
102
RTVSPropertyOp26
 70
     1
102
RTVSPropertyOp27
 70
     1
102
RTVSPropertyOp28
 70
     1
102
RTVSPropertyOp29
 70
     1
102
RTVSPropertyOp30
 70
     1
102
RTVSPropertyOp31
 70
     1
102
RTVSPropertyOp32
 70
     1
102
RTVSPropertyOp33
 70
     1
102
RTVSPropertyOp34
 70
     1
102
RTVSPropertyOp35
 70
     1
102
RTVSPropertyOp36
 70
     1
102
RTVSPropertyOp37
 70
     1
102
RTVSPropertyOp38
 70
     1
102
RTVSPropertyOp39
 70
     1
102
RTVSPropertyOp40
 70
     1
102
RTVSPropertyOp41
 70
     1
102
RTVSPropertyOp42
 70
     1
102
RTVSPropertyOp43
 70
     1
102
RTVSPropertyOp44
 70
     1
102
RTVSPropertyOp45
 70
     1
102
RTVSPropertyOp46
 70
     1
102
RTVSPropertyOp47
 70
     1
102
RTVSPropertyOp48
 70
     1
102
RTVSPropertyOp49
 70
     1
102
RTVSPropertyOp50
 70
     1
102
RTVSPropertyOp51
 70
     0
102
RTVSPropertyOp52
 70
     0
102
RTVSPropertyOp53
 70
     1
102
RTVSPropertyOp54
 70
     1
102
RTVSPropertyOp55
 70
     1
102
RTVSPropertyOp56
 70
     1
102
RTVSPropertyOp57
 70
     1
102
RTVSPost2010Prop28
280
     0
102
RTVSPost2010PropOp28
 70
     1
102
RTVSPost2010Prop29
280
     1
102
RTVSPost2010PropOp29
 70
     1
102
RTVSPost2010Prop30
280
     1
102
RTVSPost2010PropOp30
 70
     1
102
RTVSPost2010Prop31
280
     0
102
RTVSPost2010PropOp31
 70
     1
102
RTVSPost2010Prop32
280
     0
102
RTVSPost2010PropOp32
 70
     1
102
RTVSPost2010Prop33
280
     0
102
RTVSPost2010PropOp33
 70
     1
102
RTVSPost2010Prop34
280
     0
102
RTVSPost2010PropOp34
 70
     1
102
RTVSPost2010Prop35
280
     0
102
RTVSPost2010PropOp35
 70
     1
102
RTVSPost2010Prop36
280
     0
102
RTVSPost2010PropOp36
 70
     1
102
RTVSPost2010Prop37
 90
       50
102
RTVSPost2010PropOp37
 70
     1
102
RTVSPost2010Prop38
140
0.0
102
RTVSPost2010PropOp38
 70
     1
102
RTVSPost2010Prop39
140
1.0
102
RTVSPost2010PropOp39
 70
     1
102
RTVSPost2010Prop40
 90
        0
102
RTVSPost2010PropOp40
 70
     1
102
RTVSPost2010Prop41ColorIndex
 90
       18
102
RTVSPost2010Prop41ColorRGB
 90
        0
102
RTVSPost2010PropOp41
 70
     1
102
RTVSPost2010Prop42
 90
       50
102
RTVSPost2010PropOp42
 70
     1
102
RTVSPost2010Prop43
 90
        3
102
RTVSPost2010PropOp43
 70
     1
102
RTVSPost2010Prop44ColorIndex
 90
        5
102
RTVSPost2010Prop44ColorRGB
 90
      255
102
RTVSPost2010PropOp44
 70
     1
102
RTVSPost2010Prop45
280
     0
102
RTVSPost2010PropOp45
 70
     1
102
RTVSPost2010Prop46
 90
       50
102
RTVSPost2010PropOp46
 70
     1
102
RTVSPost2010Prop47
 90
       50
102
RTVSPost2010PropOp47
 70
     1
102
RTVSPost2010Prop48
 90
       50
102
RTVSPost2010PropOp48
 70
     1
102
RTVSPost2010Prop49
280
     0
102
RTVSPost2010PropOp49
 70
     1
102
RTVSPost2010Prop50
 90
       50
102
RTVSPost2010PropOp50
 70
     1
102
RTVSPost2010Prop51ColorIndex
 90
      256
102
RTVSPost2010Prop51ColorRGB
 90
-16777216
102
RTVSPost2010PropOp51
 70
     0
102
RTVSPost2010Prop52
140
1.0
102
RTVSPost2010PropOp52
 70
     0
102
RTVSPost2010Prop53
 90
        2
102
RTVSPost2010PropOp53
 70
     1
102
RTVSPost2010Prop54
  1
strokes_ogs.tif
102
RTVSPost2010PropOp54
 70
     1
102
RTVSPost2010Prop55
280
     0
102
RTVSPost2010PropOp55
 70
     1
102
RTVSPost2010Prop56
140
1.0
102
RTVSPost2010PropOp56
 70
     1
102
RTVSPost2010Prop57
140
1.0
102
RTVSPost2010PropOp57
 70
     1
  0
XRECORD
  5
445
102
{ACAD_REACTORS
330
444
102
}
330
444
100
AcDbXrecord
280
     1
102
RTVSPropertyOp0
 70
     1
102
RTVSPropertyOp1
 70
     1
102
RTVSPropertyOp2
 70
     1
102
RTVSPropertyOp3
 70
     1
102
RTVSPropertyOp4
 70
     1
102
RTVSPropertyOp5
 70
     1
102
RTVSPropertyOp6
 70
     1
102
RTVSPropertyOp7
 70
     1
102
RTVSPropertyOp8
 70
     1
102
RTVSPropertyOp9
 70
     1
102
RTVSPropertyOp10
 70
     1
102
RTVSPropertyOp11
 70
     1
102
RTVSPropertyOp12
 70
     1
102
RTVSPropertyOp13
 70
     1
102
RTVSPropertyOp14
 70
     1
102
RTVSPropertyOp15
 70
     1
102
RTVSPropertyOp16
 70
     1
102
RTVSPropertyOp17
 70
     1
102
RTVSPropertyOp18
 70
     1
102
RTVSPropertyOp19
 70
     1
102
RTVSPropertyOp20
 70
     1
102
RTVSPropertyOp21
 70
     1
102
RTVSPropertyOp22
 70
     1
102
RTVSPropertyOp23
 70
     1
102
RTVSPropertyOp24
 70
     1
102
RTVSPropertyOp25
 70
     1
102
RTVSPropertyOp26
 70
     1
102
RTVSPropertyOp27
 70
     1
102
RTVSPropertyOp28
 70
     1
102
RTVSPropertyOp29
 70
     1
102
RTVSPropertyOp30
 70
     1
102
RTVSPropertyOp31
 70
     1
102
RTVSPropertyOp32
 70
     1
102
RTVSPropertyOp33
 70
     1
102
RTVSPropertyOp34
 70
     1
102
RTVSPropertyOp35
 70
     1
102
RTVSPropertyOp36
 70
     1
102
RTVSPropertyOp37
 70
     1
102
RTVSPropertyOp38
 70
     1
102
RTVSPropertyOp39
 70
     1
102
RTVSPropertyOp40
 70
     1
102
RTVSPropertyOp41
 70
     1
102
RTVSPropertyOp42
 70
     1
102
RTVSPropertyOp43
 70
     1
102
RTVSPropertyOp44
 70
     1
102
RTVSPropertyOp45
 70
     1
102
RTVSPropertyOp46
 70
     1
102
RTVSPropertyOp47
 70
     1
102
RTVSPropertyOp48
 70
     1
102
RTVSPropertyOp49
 70
     1
102
RTVSPropertyOp50
 70
     1
102
RTVSPropertyOp51
 70
     0
102
RTVSPropertyOp52
 70
     0
102
RTVSPropertyOp53
 70
     1
102
RTVSPropertyOp54
 70
     1
102
RTVSPropertyOp55
 70
     1
102
RTVSPropertyOp56
 70
     1
102
RTVSPropertyOp57
 70
     1
102
RTVSPost2010Prop28
280
     0
102
RTVSPost2010PropOp28
 70
     1
102
RTVSPost2010Prop29
280
     1
102
RTVSPost2010PropOp29
 70
     1
102
RTVSPost2010Prop30
280
     1
102
RTVSPost2010PropOp30
 70
     1
102
RTVSPost2010Prop31
280
     0
102
RTVSPost2010PropOp31
 70
     1
102
RTVSPost2010Prop32
280
     0
102
RTVSPost2010PropOp32
 70
     1
102
RTVSPost2010Prop33
280
     0
102
RTVSPost2010PropOp33
 70
     1
102
RTVSPost2010Prop34
280
     0
102
RTVSPost2010PropOp34
 70
     1
102
RTVSPost2010Prop35
280
     0
102
RTVSPost2010PropOp35
 70
     1
102
RTVSPost2010Prop36
280
     0
102
RTVSPost2010PropOp36
 70
     1
102
RTVSPost2010Prop37
 90
       50
102
RTVSPost2010PropOp37
 70
     1
102
RTVSPost2010Prop38
140
0.0
102
RTVSPost2010PropOp38
 70
     1
102
RTVSPost2010Prop39
140
1.0
102
RTVSPost2010PropOp39
 70
     1
102
RTVSPost2010Prop40
 90
        0
102
RTVSPost2010PropOp40
 70
     1
102
RTVSPost2010Prop41ColorIndex
 90
       18
102
RTVSPost2010Prop41ColorRGB
 90
        0
102
RTVSPost2010PropOp41
 70
     1
102
RTVSPost2010Prop42
 90
       50
102
RTVSPost2010PropOp42
 70
     1
102
RTVSPost2010Prop43
 90
        3
102
RTVSPost2010PropOp43
 70
     1
102
RTVSPost2010Prop44ColorIndex
 90
        5
102
RTVSPost2010Prop44ColorRGB
 90
      255
102
RTVSPost2010PropOp44
 70
     1
102
RTVSPost2010Prop45
280
     0
102
RTVSPost2010PropOp45
 70
     1
102
RTVSPost2010Prop46
 90
       50
102
RTVSPost2010PropOp46
 70
     1
102
RTVSPost2010Prop47
 90
       50
102
RTVSPost2010PropOp47
 70
     1
102
RTVSPost2010Prop48
 90
       50
102
RTVSPost2010PropOp48
 70
     1
102
RTVSPost2010Prop49
280
     0
102
RTVSPost2010PropOp49
 70
     1
102
RTVSPost2010Prop50
 90
       50
102
RTVSPost2010PropOp50
 70
     1
102
RTVSPost2010Prop51ColorIndex
 90
      256
102
RTVSPost2010Prop51ColorRGB
 90
-16777216
102
RTVSPost2010PropOp51
 70
     0
102
RTVSPost2010Prop52
140
1.0
102
RTVSPost2010PropOp52
 70
     0
102
RTVSPost2010Prop53
 90
        2
102
RTVSPost2010PropOp53
 70
     1
102
RTVSPost2010Prop54
  1
strokes_ogs.tif
102
RTVSPost2010PropOp54
 70
     1
102
RTVSPost2010Prop55
280
     0
102
RTVSPost2010PropOp55
 70
     1
102
RTVSPost2010Prop56
140
1.0
102
RTVSPost2010PropOp56
 70
     1
102
RTVSPost2010Prop57
140
1.0
102
RTVSPost2010PropOp57
 70
     1
  0
XRECORD
  5
459
102
{ACAD_REACTORS
330
458
102
}
330
458
100
AcDbXrecord
280
     1
102
RTVSPropertyOp0
 70
     0
102
RTVSPropertyOp1
 70
     0
102
RTVSPropertyOp2
 70
     0
102
RTVSPropertyOp3
 70
     0
102
RTVSPropertyOp4
 70
     0
102
RTVSPropertyOp5
 70
     0
102
RTVSPropertyOp6
 70
     0
102
RTVSPropertyOp7
 70
     0
102
RTVSPropertyOp8
 70
     0
102
RTVSPropertyOp9
 70
     0
102
RTVSPropertyOp10
 70
     0
102
RTVSPropertyOp11
 70
     0
102
RTVSPropertyOp12
 70
     0
102
RTVSPropertyOp13
 70
     0
102
RTVSPropertyOp14
 70
     2
102
RTVSPropertyOp15
 70
     0
102
RTVSPropertyOp16
 70
     0
102
RTVSPropertyOp17
 70
     0
102
RTVSPropertyOp18
 70
     0
102
RTVSPropertyOp19
 70
     0
102
RTVSPropertyOp20
 70
     0
102
RTVSPropertyOp21
 70
     0
102
RTVSPropertyOp22
 70
     0
102
RTVSPropertyOp23
 70
     0
102
RTVSPropertyOp24
 70
     0
102
RTVSPropertyOp25
 70
     0
102
RTVSPropertyOp26
 70
     0
102
RTVSPropertyOp27
 70
     0
102
RTVSPropertyOp28
 70
     0
102
RTVSPropertyOp29
 70
     0
102
RTVSPropertyOp30
 70
     0
102
RTVSPropertyOp31
 70
     0
102
RTVSPropertyOp32
 70
     0
102
RTVSPropertyOp33
 70
     0
102
RTVSPropertyOp34
 70
     0
102
RTVSPropertyOp35
 70
     0
102
RTVSPropertyOp36
 70
     0
102
RTVSPropertyOp37
 70
     0
102
RTVSPropertyOp38
 70
     0
102
RTVSPropertyOp39
 70
     0
102
RTVSPropertyOp40
 70
     0
102
RTVSPropertyOp41
 70
     0
102
RTVSPropertyOp42
 70
     0
102
RTVSPropertyOp43
 70
     0
102
RTVSPropertyOp44
 70
     0
102
RTVSPropertyOp45
 70
     0
102
RTVSPropertyOp46
 70
     0
102
RTVSPropertyOp47
 70
     0
102
RTVSPropertyOp48
 70
     0
102
RTVSPropertyOp49
 70
     0
102
RTVSPropertyOp50
 70
     0
102
RTVSPropertyOp51
 70
     0
102
RTVSPropertyOp52
 70
     0
102
RTVSPropertyOp53
 70
     0
102
RTVSPropertyOp54
 70
     0
102
RTVSPropertyOp55
 70
     0
102
RTVSPropertyOp56
 70
     0
102
RTVSPropertyOp57
 70
     0
102
RTVSPost2010Prop28
280
     0
102
RTVSPost2010PropOp28
 70
     0
102
RTVSPost2010Prop29
280
     1
102
RTVSPost2010PropOp29
 70
     0
102
RTVSPost2010Prop30
280
     1
102
RTVSPost2010PropOp30
 70
     0
102
RTVSPost2010Prop31
280
     0
102
RTVSPost2010PropOp31
 70
     0
102
RTVSPost2010Prop32
280
     0
102
RTVSPost2010PropOp32
 70
     0
102
RTVSPost2010Prop33
280
     0
102
RTVSPost2010PropOp33
 70
     0
102
RTVSPost2010Prop34
280
     0
102
RTVSPost2010PropOp34
 70
     0
102
RTVSPost2010Prop35
280
     0
102
RTVSPost2010PropOp35
 70
     0
102
RTVSPost2010Prop36
280
     0
102
RTVSPost2010PropOp36
 70
     0
102
RTVSPost2010Prop37
 90
       50
102
RTVSPost2010PropOp37
 70
     0
102
RTVSPost2010Prop38
140
0.0
102
RTVSPost2010PropOp38
 70
     0
102
RTVSPost2010Prop39
140
1.0
102
RTVSPost2010PropOp39
 70
     0
102
RTVSPost2010Prop40
 90
        0
102
RTVSPost2010PropOp40
 70
     0
102
RTVSPost2010Prop41ColorIndex
 90
       18
102
RTVSPost2010Prop41ColorRGB
 90
        0
102
RTVSPost2010PropOp41
 70
     0
102
RTVSPost2010Prop42
 90
       50
102
RTVSPost2010PropOp42
 70
     0
102
RTVSPost2010Prop43
 90
        3
102
RTVSPost2010PropOp43
 70
     0
102
RTVSPost2010Prop44ColorIndex
 90
        5
102
RTVSPost2010Prop44ColorRGB
 90
      255
102
RTVSPost2010PropOp44
 70
     0
102
RTVSPost2010Prop45
280
     0
102
RTVSPost2010PropOp45
 70
     0
102
RTVSPost2010Prop46
 90
       50
102
RTVSPost2010PropOp46
 70
     0
102
RTVSPost2010Prop47
 90
       50
102
RTVSPost2010PropOp47
 70
     0
102
RTVSPost2010Prop48
 90
       50
102
RTVSPost2010PropOp48
 70
     0
102
RTVSPost2010Prop49
280
     0
102
RTVSPost2010PropOp49
 70
     0
102
RTVSPost2010Prop50
 90
       50
102
RTVSPost2010PropOp50
 70
     0
102
RTVSPost2010Prop51ColorIndex
 90
      256
102
RTVSPost2010Prop51ColorRGB
 90
-16777216
102
RTVSPost2010PropOp51
 70
     0
102
RTVSPost2010Prop52
140
1.0
102
RTVSPost2010PropOp52
 70
     0
102
RTVSPost2010Prop53
 90
        2
102
RTVSPost2010PropOp53
 70
     0
102
RTVSPost2010Prop54
  1
strokes_ogs.tif
102
RTVSPost2010PropOp54
 70
     0
102
RTVSPost2010Prop55
280
     0
102
RTVSPost2010PropOp55
 70
     0
102
RTVSPost2010Prop56
140
1.0
102
RTVSPost2010PropOp56
 70
     0
102
RTVSPost2010Prop57
140
1.0
102
RTVSPost2010PropOp57
 70
     0
  0
XRECORD
  5
453
102
{ACAD_REACTORS
330
452
102
}
330
452
100
AcDbXrecord
280
     1
102
RTVSPropertyOp0
 70
     1
102
RTVSPropertyOp1
 70
     1
102
RTVSPropertyOp2
 70
     1
102
RTVSPropertyOp3
 70
     1
102
RTVSPropertyOp4
 70
     1
102
RTVSPropertyOp5
 70
     1
102
RTVSPropertyOp6
 70
     1
102
RTVSPropertyOp7
 70
     1
102
RTVSPropertyOp8
 70
     1
102
RTVSPropertyOp9
 70
     1
102
RTVSPropertyOp10
 70
     1
102
RTVSPropertyOp11
 70
     1
102
RTVSPropertyOp12
 70
     1
102
RTVSPropertyOp13
 70
     1
102
RTVSPropertyOp14
 70
     1
102
RTVSPropertyOp15
 70
     1
102
RTVSPropertyOp16
 70
     1
102
RTVSPropertyOp17
 70
     1
102
RTVSPropertyOp18
 70
     1
102
RTVSPropertyOp19
 70
     1
102
RTVSPropertyOp20
 70
     1
102
RTVSPropertyOp21
 70
     1
102
RTVSPropertyOp22
 70
     1
102
RTVSPropertyOp23
 70
     1
102
RTVSPropertyOp24
 70
     1
102
RTVSPropertyOp25
 70
     1
102
RTVSPropertyOp26
 70
     1
102
RTVSPropertyOp27
 70
     1
102
RTVSPropertyOp28
 70
     1
102
RTVSPropertyOp29
 70
     1
102
RTVSPropertyOp30
 70
     1
102
RTVSPropertyOp31
 70
     1
102
RTVSPropertyOp32
 70
     1
102
RTVSPropertyOp33
 70
     1
102
RTVSPropertyOp34
 70
     1
102
RTVSPropertyOp35
 70
     1
102
RTVSPropertyOp36
 70
     1
102
RTVSPropertyOp37
 70
     1
102
RTVSPropertyOp38
 70
     1
102
RTVSPropertyOp39
 70
     1
102
RTVSPropertyOp40
 70
     1
102
RTVSPropertyOp41
 70
     1
102
RTVSPropertyOp42
 70
     1
102
RTVSPropertyOp43
 70
     1
102
RTVSPropertyOp44
 70
     1
102
RTVSPropertyOp45
 70
     1
102
RTVSPropertyOp46
 70
     1
102
RTVSPropertyOp47
 70
     1
102
RTVSPropertyOp48
 70
     1
102
RTVSPropertyOp49
 70
     1
102
RTVSPropertyOp50
 70
     1
102
RTVSPropertyOp51
 70
     0
102
RTVSPropertyOp52
 70
     0
102
RTVSPropertyOp53
 70
     1
102
RTVSPropertyOp54
 70
     1
102
RTVSPropertyOp55
 70
     1
102
RTVSPropertyOp56
 70
     1
102
RTVSPropertyOp57
 70
     1
102
RTVSPost2010Prop28
280
     0
102
RTVSPost2010PropOp28
 70
     1
102
RTVSPost2010Prop29
280
     1
102
RTVSPost2010PropOp29
 70
     1
102
RTVSPost2010Prop30
280
     1
102
RTVSPost2010PropOp30
 70
     1
102
RTVSPost2010Prop31
280
     0
102
RTVSPost2010PropOp31
 70
     1
102
RTVSPost2010Prop32
280
     0
102
RTVSPost2010PropOp32
 70
     1
102
RTVSPost2010Prop33
280
     0
102
RTVSPost2010PropOp33
 70
     1
102
RTVSPost2010Prop34
280
     0
102
RTVSPost2010PropOp34
 70
     1
102
RTVSPost2010Prop35
280
     0
102
RTVSPost2010PropOp35
 70
     1
102
RTVSPost2010Prop36
280
     0
102
RTVSPost2010PropOp36
 70
     1
102
RTVSPost2010Prop37
 90
       50
102
RTVSPost2010PropOp37
 70
     1
102
RTVSPost2010Prop38
140
0.0
102
RTVSPost2010PropOp38
 70
     1
102
RTVSPost2010Prop39
140
1.0
102
RTVSPost2010PropOp39
 70
     1
102
RTVSPost2010Prop40
 90
        0
102
RTVSPost2010PropOp40
 70
     1
102
RTVSPost2010Prop41ColorIndex
 90
       18
102
RTVSPost2010Prop41ColorRGB
 90
        0
102
RTVSPost2010PropOp41
 70
     1
102
RTVSPost2010Prop42
 90
       50
102
RTVSPost2010PropOp42
 70
     1
102
RTVSPost2010Prop43
 90
        3
102
RTVSPost2010PropOp43
 70
     1
102
RTVSPost2010Prop44ColorIndex
 90
        5
102
RTVSPost2010Prop44ColorRGB
 90
      255
102
RTVSPost2010PropOp44
 70
     1
102
RTVSPost2010Prop45
280
     0
102
RTVSPost2010PropOp45
 70
     1
102
RTVSPost2010Prop46
 90
       50
102
RTVSPost2010PropOp46
 70
     1
102
RTVSPost2010Prop47
 90
       50
102
RTVSPost2010PropOp47
 70
     1
102
RTVSPost2010Prop48
 90
       50
102
RTVSPost2010PropOp48
 70
     1
102
RTVSPost2010Prop49
280
     0
102
RTVSPost2010PropOp49
 70
     1
102
RTVSPost2010Prop50
 90
       50
102
RTVSPost2010PropOp50
 70
     1
102
RTVSPost2010Prop51ColorIndex
 90
      256
102
RTVSPost2010Prop51ColorRGB
 90
-16777216
102
RTVSPost2010PropOp51
 70
     0
102
RTVSPost2010Prop52
140
1.0
102
RTVSPost2010PropOp52
 70
     0
102
RTVSPost2010Prop53
 90
        2
102
RTVSPost2010PropOp53
 70
     1
102
RTVSPost2010Prop54
  1
strokes_ogs.tif
102
RTVSPost2010PropOp54
 70
     1
102
RTVSPost2010Prop55
280
     0
102
RTVSPost2010PropOp55
 70
     1
102
RTVSPost2010Prop56
140
1.0
102
RTVSPost2010PropOp56
 70
     1
102
RTVSPost2010Prop57
140
1.0
102
RTVSPost2010PropOp57
 70
     1
  0
XRECORD
  5
45B
102
{ACAD_REACTORS
330
45A
102
}
330
45A
100
AcDbXrecord
280
     1
102
RTVSPropertyOp0
 70
     0
102
RTVSPropertyOp1
 70
     0
102
RTVSPropertyOp2
 70
     0
102
RTVSPropertyOp3
 70
     0
102
RTVSPropertyOp4
 70
     0
102
RTVSPropertyOp5
 70
     0
102
RTVSPropertyOp6
 70
     0
102
RTVSPropertyOp7
 70
     0
102
RTVSPropertyOp8
 70
     0
102
RTVSPropertyOp9
 70
     0
102
RTVSPropertyOp10
 70
     0
102
RTVSPropertyOp11
 70
     0
102
RTVSPropertyOp12
 70
     0
102
RTVSPropertyOp13
 70
     0
102
RTVSPropertyOp14
 70
     2
102
RTVSPropertyOp15
 70
     0
102
RTVSPropertyOp16
 70
     0
102
RTVSPropertyOp17
 70
     0
102
RTVSPropertyOp18
 70
     0
102
RTVSPropertyOp19
 70
     0
102
RTVSPropertyOp20
 70
     0
102
RTVSPropertyOp21
 70
     0
102
RTVSPropertyOp22
 70
     0
102
RTVSPropertyOp23
 70
     0
102
RTVSPropertyOp24
 70
     0
102
RTVSPropertyOp25
 70
     0
102
RTVSPropertyOp26
 70
     0
102
RTVSPropertyOp27
 70
     0
102
RTVSPropertyOp28
 70
     0
102
RTVSPropertyOp29
 70
     0
102
RTVSPropertyOp30
 70
     0
102
RTVSPropertyOp31
 70
     0
102
RTVSPropertyOp32
 70
     0
102
RTVSPropertyOp33
 70
     0
102
RTVSPropertyOp34
 70
     0
102
RTVSPropertyOp35
 70
     0
102
RTVSPropertyOp36
 70
     0
102
RTVSPropertyOp37
 70
     0
102
RTVSPropertyOp38
 70
     0
102
RTVSPropertyOp39
 70
     0
102
RTVSPropertyOp40
 70
     0
102
RTVSPropertyOp41
 70
     0
102
RTVSPropertyOp42
 70
     0
102
RTVSPropertyOp43
 70
     0
102
RTVSPropertyOp44
 70
     0
102
RTVSPropertyOp45
 70
     0
102
RTVSPropertyOp46
 70
     0
102
RTVSPropertyOp47
 70
     0
102
RTVSPropertyOp48
 70
     0
102
RTVSPropertyOp49
 70
     0
102
RTVSPropertyOp50
 70
     0
102
RTVSPropertyOp51
 70
     0
102
RTVSPropertyOp52
 70
     0
102
RTVSPropertyOp53
 70
     0
102
RTVSPropertyOp54
 70
     0
102
RTVSPropertyOp55
 70
     0
102
RTVSPropertyOp56
 70
     0
102
RTVSPropertyOp57
 70
     0
102
RTVSPost2010Prop28
280
     0
102
RTVSPost2010PropOp28
 70
     0
102
RTVSPost2010Prop29
280
     1
102
RTVSPost2010PropOp29
 70
     0
102
RTVSPost2010Prop30
280
     1
102
RTVSPost2010PropOp30
 70
     0
102
RTVSPost2010Prop31
280
     0
102
RTVSPost2010PropOp31
 70
     0
102
RTVSPost2010Prop32
280
     0
102
RTVSPost2010PropOp32
 70
     0
102
RTVSPost2010Prop33
280
     0
102
RTVSPost2010PropOp33
 70
     0
102
RTVSPost2010Prop34
280
     0
102
RTVSPost2010PropOp34
 70
     0
102
RTVSPost2010Prop35
280
     0
102
RTVSPost2010PropOp35
 70
     0
102
RTVSPost2010Prop36
280
     0
102
RTVSPost2010PropOp36
 70
     0
102
RTVSPost2010Prop37
 90
       50
102
RTVSPost2010PropOp37
 70
     0
102
RTVSPost2010Prop38
140
0.0
102
RTVSPost2010PropOp38
 70
     0
102
RTVSPost2010Prop39
140
1.0
102
RTVSPost2010PropOp39
 70
     0
102
RTVSPost2010Prop40
 90
        0
102
RTVSPost2010PropOp40
 70
     0
102
RTVSPost2010Prop41ColorIndex
 90
       18
102
RTVSPost2010Prop41ColorRGB
 90
        0
102
RTVSPost2010PropOp41
 70
     0
102
RTVSPost2010Prop42
 90
       50
102
RTVSPost2010PropOp42
 70
     0
102
RTVSPost2010Prop43
 90
        3
102
RTVSPost2010PropOp43
 70
     0
102
RTVSPost2010Prop44ColorIndex
 90
        5
102
RTVSPost2010Prop44ColorRGB
 90
      255
102
RTVSPost2010PropOp44
 70
     0
102
RTVSPost2010Prop45
280
     0
102
RTVSPost2010PropOp45
 70
     0
102
RTVSPost2010Prop46
 90
       50
102
RTVSPost2010PropOp46
 70
     0
102
RTVSPost2010Prop47
 90
       50
102
RTVSPost2010PropOp47
 70
     0
102
RTVSPost2010Prop48
 90
       50
102
RTVSPost2010PropOp48
 70
     0
102
RTVSPost2010Prop49
280
     0
102
RTVSPost2010PropOp49
 70
     0
102
RTVSPost2010Prop50
 90
       50
102
RTVSPost2010PropOp50
 70
     0
102
RTVSPost2010Prop51ColorIndex
 90
      256
102
RTVSPost2010Prop51ColorRGB
 90
-16777216
102
RTVSPost2010PropOp51
 70
     0
102
RTVSPost2010Prop52
140
1.0
102
RTVSPost2010PropOp52
 70
     0
102
RTVSPost2010Prop53
 90
        2
102
RTVSPost2010PropOp53
 70
     0
102
RTVSPost2010Prop54
  1
strokes_ogs.tif
102
RTVSPost2010PropOp54
 70
     0
102
RTVSPost2010Prop55
280
     0
102
RTVSPost2010PropOp55
 70
     0
102
RTVSPost2010Prop56
140
1.0
102
RTVSPost2010PropOp56
 70
     0
102
RTVSPost2010Prop57
140
1.0
102
RTVSPost2010PropOp57
 70
     0
  0
XRECORD
  5
449
102
{ACAD_REACTORS
330
448
102
}
330
448
100
AcDbXrecord
280
     1
102
RTVSPropertyOp0
 70
     1
102
RTVSPropertyOp1
 70
     1
102
RTVSPropertyOp2
 70
     1
102
RTVSPropertyOp3
 70
     1
102
RTVSPropertyOp4
 70
     1
102
RTVSPropertyOp5
 70
     1
102
RTVSPropertyOp6
 70
     1
102
RTVSPropertyOp7
 70
     1
102
RTVSPropertyOp8
 70
     1
102
RTVSPropertyOp9
 70
     1
102
RTVSPropertyOp10
 70
     1
102
RTVSPropertyOp11
 70
     1
102
RTVSPropertyOp12
 70
     1
102
RTVSPropertyOp13
 70
     1
102
RTVSPropertyOp14
 70
     1
102
RTVSPropertyOp15
 70
     1
102
RTVSPropertyOp16
 70
     1
102
RTVSPropertyOp17
 70
     1
102
RTVSPropertyOp18
 70
     1
102
RTVSPropertyOp19
 70
     1
102
RTVSPropertyOp20
 70
     1
102
RTVSPropertyOp21
 70
     1
102
RTVSPropertyOp22
 70
     1
102
RTVSPropertyOp23
 70
     1
102
RTVSPropertyOp24
 70
     1
102
RTVSPropertyOp25
 70
     1
102
RTVSPropertyOp26
 70
     1
102
RTVSPropertyOp27
 70
     1
102
RTVSPropertyOp28
 70
     1
102
RTVSPropertyOp29
 70
     1
102
RTVSPropertyOp30
 70
     1
102
RTVSPropertyOp31
 70
     1
102
RTVSPropertyOp32
 70
     1
102
RTVSPropertyOp33
 70
     1
102
RTVSPropertyOp34
 70
     1
102
RTVSPropertyOp35
 70
     1
102
RTVSPropertyOp36
 70
     1
102
RTVSPropertyOp37
 70
     1
102
RTVSPropertyOp38
 70
     1
102
RTVSPropertyOp39
 70
     1
102
RTVSPropertyOp40
 70
     1
102
RTVSPropertyOp41
 70
     1
102
RTVSPropertyOp42
 70
     1
102
RTVSPropertyOp43
 70
     1
102
RTVSPropertyOp44
 70
     1
102
RTVSPropertyOp45
 70
     1
102
RTVSPropertyOp46
 70
     1
102
RTVSPropertyOp47
 70
     1
102
RTVSPropertyOp48
 70
     1
102
RTVSPropertyOp49
 70
     1
102
RTVSPropertyOp50
 70
     1
102
RTVSPropertyOp51
 70
     0
102
RTVSPropertyOp52
 70
     0
102
RTVSPropertyOp53
 70
     1
102
RTVSPropertyOp54
 70
     1
102
RTVSPropertyOp55
 70
     1
102
RTVSPropertyOp56
 70
     1
102
RTVSPropertyOp57
 70
     1
102
RTVSPost2010Prop28
280
     0
102
RTVSPost2010PropOp28
 70
     1
102
RTVSPost2010Prop29
280
     1
102
RTVSPost2010PropOp29
 70
     1
102
RTVSPost2010Prop30
280
     1
102
RTVSPost2010PropOp30
 70
     1
102
RTVSPost2010Prop31
280
     0
102
RTVSPost2010PropOp31
 70
     1
102
RTVSPost2010Prop32
280
     0
102
RTVSPost2010PropOp32
 70
     1
102
RTVSPost2010Prop33
280
     0
102
RTVSPost2010PropOp33
 70
     1
102
RTVSPost2010Prop34
280
     0
102
RTVSPost2010PropOp34
 70
     1
102
RTVSPost2010Prop35
280
     0
102
RTVSPost2010PropOp35
 70
     1
102
RTVSPost2010Prop36
280
     0
102
RTVSPost2010PropOp36
 70
     1
102
RTVSPost2010Prop37
 90
       50
102
RTVSPost2010PropOp37
 70
     1
102
RTVSPost2010Prop38
140
0.0
102
RTVSPost2010PropOp38
 70
     1
102
RTVSPost2010Prop39
140
1.0
102
RTVSPost2010PropOp39
 70
     1
102
RTVSPost2010Prop40
 90
        0
102
RTVSPost2010PropOp40
 70
     1
102
RTVSPost2010Prop41ColorIndex
 90
       18
102
RTVSPost2010Prop41ColorRGB
 90
        0
102
RTVSPost2010PropOp41
 70
     1
102
RTVSPost2010Prop42
 90
       50
102
RTVSPost2010PropOp42
 70
     1
102
RTVSPost2010Prop43
 90
        3
102
RTVSPost2010PropOp43
 70
     1
102
RTVSPost2010Prop44ColorIndex
 90
        5
102
RTVSPost2010Prop44ColorRGB
 90
      255
102
RTVSPost2010PropOp44
 70
     1
102
RTVSPost2010Prop45
280
     0
102
RTVSPost2010PropOp45
 70
     1
102
RTVSPost2010Prop46
 90
       50
102
RTVSPost2010PropOp46
 70
     1
102
RTVSPost2010Prop47
 90
       50
102
RTVSPost2010PropOp47
 70
     1
102
RTVSPost2010Prop48
 90
       50
102
RTVSPost2010PropOp48
 70
     1
102
RTVSPost2010Prop49
280
     0
102
RTVSPost2010PropOp49
 70
     1
102
RTVSPost2010Prop50
 90
       50
102
RTVSPost2010PropOp50
 70
     1
102
RTVSPost2010Prop51ColorIndex
 90
      256
102
RTVSPost2010Prop51ColorRGB
 90
-16777216
102
RTVSPost2010PropOp51
 70
     0
102
RTVSPost2010Prop52
140
1.0
102
RTVSPost2010PropOp52
 70
     0
102
RTVSPost2010Prop53
 90
        2
102
RTVSPost2010PropOp53
 70
     1
102
RTVSPost2010Prop54
  1
strokes_ogs.tif
102
RTVSPost2010PropOp54
 70
     1
102
RTVSPost2010Prop55
280
     0
102
RTVSPost2010PropOp55
 70
     1
102
RTVSPost2010Prop56
140
1.0
102
RTVSPost2010PropOp56
 70
     1
102
RTVSPost2010Prop57
140
1.0
102
RTVSPost2010PropOp57
 70
     1
  0
XRECORD
  5
467
102
{ACAD_REACTORS
330
466
102
}
330
466
100
AcDbXrecord
280
     1
102
RTVSPropertyOp0
 70
     1
102
RTVSPropertyOp1
 70
     1
102
RTVSPropertyOp2
 70
     1
102
RTVSPropertyOp3
 70
     1
102
RTVSPropertyOp4
 70
     1
102
RTVSPropertyOp5
 70
     1
102
RTVSPropertyOp6
 70
     1
102
RTVSPropertyOp7
 70
     1
102
RTVSPropertyOp8
 70
     1
102
RTVSPropertyOp9
 70
     1
102
RTVSPropertyOp10
 70
     1
102
RTVSPropertyOp11
 70
     1
102
RTVSPropertyOp12
 70
     1
102
RTVSPropertyOp13
 70
     1
102
RTVSPropertyOp14
 70
     1
102
RTVSPropertyOp15
 70
     1
102
RTVSPropertyOp16
 70
     1
102
RTVSPropertyOp17
 70
     1
102
RTVSPropertyOp18
 70
     1
102
RTVSPropertyOp19
 70
     1
102
RTVSPropertyOp20
 70
     1
102
RTVSPropertyOp21
 70
     1
102
RTVSPropertyOp22
 70
     1
102
RTVSPropertyOp23
 70
     1
102
RTVSPropertyOp24
 70
     1
102
RTVSPropertyOp25
 70
     1
102
RTVSPropertyOp26
 70
     1
102
RTVSPropertyOp27
 70
     1
102
RTVSPropertyOp28
 70
     1
102
RTVSPropertyOp29
 70
     1
102
RTVSPropertyOp30
 70
     1
102
RTVSPropertyOp31
 70
     1
102
RTVSPropertyOp32
 70
     1
102
RTVSPropertyOp33
 70
     1
102
RTVSPropertyOp34
 70
     1
102
RTVSPropertyOp35
 70
     1
102
RTVSPropertyOp36
 70
     1
102
RTVSPropertyOp37
 70
     1
102
RTVSPropertyOp38
 70
     1
102
RTVSPropertyOp39
 70
     1
102
RTVSPropertyOp40
 70
     1
102
RTVSPropertyOp41
 70
     1
102
RTVSPropertyOp42
 70
     1
102
RTVSPropertyOp43
 70
     1
102
RTVSPropertyOp44
 70
     1
102
RTVSPropertyOp45
 70
     1
102
RTVSPropertyOp46
 70
     1
102
RTVSPropertyOp47
 70
     1
102
RTVSPropertyOp48
 70
     1
102
RTVSPropertyOp49
 70
     1
102
RTVSPropertyOp50
 70
     1
102
RTVSPropertyOp51
 70
     0
102
RTVSPropertyOp52
 70
     0
102
RTVSPropertyOp53
 70
     1
102
RTVSPropertyOp54
 70
     1
102
RTVSPropertyOp55
 70
     1
102
RTVSPropertyOp56
 70
     1
102
RTVSPropertyOp57
 70
     1
102
RTVSPost2010Prop28
280
     0
102
RTVSPost2010PropOp28
 70
     1
102
RTVSPost2010Prop29
280
     1
102
RTVSPost2010PropOp29
 70
     1
102
RTVSPost2010Prop30
280
     1
102
RTVSPost2010PropOp30
 70
     1
102
RTVSPost2010Prop31
280
     0
102
RTVSPost2010PropOp31
 70
     1
102
RTVSPost2010Prop32
280
     0
102
RTVSPost2010PropOp32
 70
     1
102
RTVSPost2010Prop33
280
     0
102
RTVSPost2010PropOp33
 70
     1
102
RTVSPost2010Prop34
280
     0
102
RTVSPost2010PropOp34
 70
     1
102
RTVSPost2010Prop35
280
     0
102
RTVSPost2010PropOp35
 70
     1
102
RTVSPost2010Prop36
280
     0
102
RTVSPost2010PropOp36
 70
     1
102
RTVSPost2010Prop37
 90
       50
102
RTVSPost2010PropOp37
 70
     1
102
RTVSPost2010Prop38
140
0.0
102
RTVSPost2010PropOp38
 70
     1
102
RTVSPost2010Prop39
140
1.0
102
RTVSPost2010PropOp39
 70
     1
102
RTVSPost2010Prop40
 90
        0
102
RTVSPost2010PropOp40
 70
     1
102
RTVSPost2010Prop41ColorIndex
 90
       18
102
RTVSPost2010Prop41ColorRGB
 90
        0
102
RTVSPost2010PropOp41
 70
     1
102
RTVSPost2010Prop42
 90
       50
102
RTVSPost2010PropOp42
 70
     1
102
RTVSPost2010Prop43
 90
        3
102
RTVSPost2010PropOp43
 70
     1
102
RTVSPost2010Prop44ColorIndex
 90
        5
102
RTVSPost2010Prop44ColorRGB
 90
      255
102
RTVSPost2010PropOp44
 70
     1
102
RTVSPost2010Prop45
280
     0
102
RTVSPost2010PropOp45
 70
     1
102
RTVSPost2010Prop46
 90
       50
102
RTVSPost2010PropOp46
 70
     1
102
RTVSPost2010Prop47
 90
       50
102
RTVSPost2010PropOp47
 70
     1
102
RTVSPost2010Prop48
 90
       50
102
RTVSPost2010PropOp48
 70
     1
102
RTVSPost2010Prop49
280
     0
102
RTVSPost2010PropOp49
 70
     1
102
RTVSPost2010Prop50
 90
       50
102
RTVSPost2010PropOp50
 70
     1
102
RTVSPost2010Prop51ColorIndex
 90
      256
102
RTVSPost2010Prop51ColorRGB
 90
-16777216
102
RTVSPost2010PropOp51
 70
     0
102
RTVSPost2010Prop52
140
1.0
102
RTVSPost2010PropOp52
 70
     0
102
RTVSPost2010Prop53
 90
        2
102
RTVSPost2010PropOp53
 70
     1
102
RTVSPost2010Prop54
  1
strokes_ogs.tif
102
RTVSPost2010PropOp54
 70
     1
102
RTVSPost2010Prop55
280
     0
102
RTVSPost2010PropOp55
 70
     1
102
RTVSPost2010Prop56
140
1.0
102
RTVSPost2010PropOp56
 70
     1
102
RTVSPost2010Prop57
140
1.0
102
RTVSPost2010PropOp57
 70
     1
  0
XRECORD
  5
465
102
{ACAD_REACTORS
330
464
102
}
330
464
100
AcDbXrecord
280
     1
102
RTVSPropertyOp0
 70
     1
102
RTVSPropertyOp1
 70
     1
102
RTVSPropertyOp2
 70
     1
102
RTVSPropertyOp3
 70
     1
102
RTVSPropertyOp4
 70
     1
102
RTVSPropertyOp5
 70
     1
102
RTVSPropertyOp6
 70
     1
102
RTVSPropertyOp7
 70
     1
102
RTVSPropertyOp8
 70
     1
102
RTVSPropertyOp9
 70
     1
102
RTVSPropertyOp10
 70
     1
102
RTVSPropertyOp11
 70
     1
102
RTVSPropertyOp12
 70
     1
102
RTVSPropertyOp13
 70
     1
102
RTVSPropertyOp14
 70
     1
102
RTVSPropertyOp15
 70
     1
102
RTVSPropertyOp16
 70
     1
102
RTVSPropertyOp17
 70
     1
102
RTVSPropertyOp18
 70
     1
102
RTVSPropertyOp19
 70
     1
102
RTVSPropertyOp20
 70
     1
102
RTVSPropertyOp21
 70
     1
102
RTVSPropertyOp22
 70
     1
102
RTVSPropertyOp23
 70
     1
102
RTVSPropertyOp24
 70
     1
102
RTVSPropertyOp25
 70
     1
102
RTVSPropertyOp26
 70
     1
102
RTVSPropertyOp27
 70
     1
102
RTVSPropertyOp28
 70
     1
102
RTVSPropertyOp29
 70
     1
102
RTVSPropertyOp30
 70
     1
102
RTVSPropertyOp31
 70
     1
102
RTVSPropertyOp32
 70
     1
102
RTVSPropertyOp33
 70
     1
102
RTVSPropertyOp34
 70
     1
102
RTVSPropertyOp35
 70
     1
102
RTVSPropertyOp36
 70
     1
102
RTVSPropertyOp37
 70
     1
102
RTVSPropertyOp38
 70
     1
102
RTVSPropertyOp39
 70
     1
102
RTVSPropertyOp40
 70
     1
102
RTVSPropertyOp41
 70
     1
102
RTVSPropertyOp42
 70
     1
102
RTVSPropertyOp43
 70
     1
102
RTVSPropertyOp44
 70
     1
102
RTVSPropertyOp45
 70
     1
102
RTVSPropertyOp46
 70
     1
102
RTVSPropertyOp47
 70
     1
102
RTVSPropertyOp48
 70
     1
102
RTVSPropertyOp49
 70
     1
102
RTVSPropertyOp50
 70
     1
102
RTVSPropertyOp51
 70
     0
102
RTVSPropertyOp52
 70
     0
102
RTVSPropertyOp53
 70
     1
102
RTVSPropertyOp54
 70
     1
102
RTVSPropertyOp55
 70
     1
102
RTVSPropertyOp56
 70
     1
102
RTVSPropertyOp57
 70
     1
102
RTVSPost2010Prop28
280
     0
102
RTVSPost2010PropOp28
 70
     1
102
RTVSPost2010Prop29
280
     1
102
RTVSPost2010PropOp29
 70
     1
102
RTVSPost2010Prop30
280
     1
102
RTVSPost2010PropOp30
 70
     1
102
RTVSPost2010Prop31
280
     0
102
RTVSPost2010PropOp31
 70
     1
102
RTVSPost2010Prop32
280
     0
102
RTVSPost2010PropOp32
 70
     1
102
RTVSPost2010Prop33
280
     0
102
RTVSPost2010PropOp33
 70
     1
102
RTVSPost2010Prop34
280
     0
102
RTVSPost2010PropOp34
 70
     1
102
RTVSPost2010Prop35
280
     0
102
RTVSPost2010PropOp35
 70
     1
102
RTVSPost2010Prop36
280
     0
102
RTVSPost2010PropOp36
 70
     1
102
RTVSPost2010Prop37
 90
       50
102
RTVSPost2010PropOp37
 70
     1
102
RTVSPost2010Prop38
140
0.0
102
RTVSPost2010PropOp38
 70
     1
102
RTVSPost2010Prop39
140
1.0
102
RTVSPost2010PropOp39
 70
     1
102
RTVSPost2010Prop40
 90
        0
102
RTVSPost2010PropOp40
 70
     1
102
RTVSPost2010Prop41ColorIndex
 90
       18
102
RTVSPost2010Prop41ColorRGB
 90
        0
102
RTVSPost2010PropOp41
 70
     1
102
RTVSPost2010Prop42
 90
       50
102
RTVSPost2010PropOp42
 70
     1
102
RTVSPost2010Prop43
 90
        3
102
RTVSPost2010PropOp43
 70
     1
102
RTVSPost2010Prop44ColorIndex
 90
        5
102
RTVSPost2010Prop44ColorRGB
 90
      255
102
RTVSPost2010PropOp44
 70
     1
102
RTVSPost2010Prop45
280
     0
102
RTVSPost2010PropOp45
 70
     1
102
RTVSPost2010Prop46
 90
       50
102
RTVSPost2010PropOp46
 70
     1
102
RTVSPost2010Prop47
 90
       50
102
RTVSPost2010PropOp47
 70
     1
102
RTVSPost2010Prop48
 90
       50
102
RTVSPost2010PropOp48
 70
     1
102
RTVSPost2010Prop49
280
     0
102
RTVSPost2010PropOp49
 70
     1
102
RTVSPost2010Prop50
 90
       50
102
RTVSPost2010PropOp50
 70
     1
102
RTVSPost2010Prop51ColorIndex
 90
      256
102
RTVSPost2010Prop51ColorRGB
 90
-16777216
102
RTVSPost2010PropOp51
 70
     0
102
RTVSPost2010Prop52
140
1.0
102
RTVSPost2010PropOp52
 70
     0
102
RTVSPost2010Prop53
 90
        2
102
RTVSPost2010PropOp53
 70
     1
102
RTVSPost2010Prop54
  1
strokes_ogs.tif
102
RTVSPost2010PropOp54
 70
     1
102
RTVSPost2010Prop55
280
     0
102
RTVSPost2010PropOp55
 70
     1
102
RTVSPost2010Prop56
140
1.0
102
RTVSPost2010PropOp56
 70
     1
102
RTVSPost2010Prop57
140
1.0
102
RTVSPost2010PropOp57
 70
     1
  0
XRECORD
  5
45F
102
{ACAD_REACTORS
330
45E
102
}
330
45E
100
AcDbXrecord
280
     1
102
RTVSPropertyOp0
 70
     1
102
RTVSPropertyOp1
 70
     1
102
RTVSPropertyOp2
 70
     1
102
RTVSPropertyOp3
 70
     1
102
RTVSPropertyOp4
 70
     1
102
RTVSPropertyOp5
 70
     1
102
RTVSPropertyOp6
 70
     1
102
RTVSPropertyOp7
 70
     1
102
RTVSPropertyOp8
 70
     1
102
RTVSPropertyOp9
 70
     1
102
RTVSPropertyOp10
 70
     1
102
RTVSPropertyOp11
 70
     1
102
RTVSPropertyOp12
 70
     1
102
RTVSPropertyOp13
 70
     1
102
RTVSPropertyOp14
 70
     1
102
RTVSPropertyOp15
 70
     1
102
RTVSPropertyOp16
 70
     1
102
RTVSPropertyOp17
 70
     1
102
RTVSPropertyOp18
 70
     1
102
RTVSPropertyOp19
 70
     1
102
RTVSPropertyOp20
 70
     1
102
RTVSPropertyOp21
 70
     1
102
RTVSPropertyOp22
 70
     1
102
RTVSPropertyOp23
 70
     1
102
RTVSPropertyOp24
 70
     1
102
RTVSPropertyOp25
 70
     1
102
RTVSPropertyOp26
 70
     1
102
RTVSPropertyOp27
 70
     1
102
RTVSPropertyOp28
 70
     1
102
RTVSPropertyOp29
 70
     1
102
RTVSPropertyOp30
 70
     1
102
RTVSPropertyOp31
 70
     1
102
RTVSPropertyOp32
 70
     1
102
RTVSPropertyOp33
 70
     1
102
RTVSPropertyOp34
 70
     1
102
RTVSPropertyOp35
 70
     1
102
RTVSPropertyOp36
 70
     1
102
RTVSPropertyOp37
 70
     1
102
RTVSPropertyOp38
 70
     1
102
RTVSPropertyOp39
 70
     1
102
RTVSPropertyOp40
 70
     1
102
RTVSPropertyOp41
 70
     1
102
RTVSPropertyOp42
 70
     1
102
RTVSPropertyOp43
 70
     1
102
RTVSPropertyOp44
 70
     1
102
RTVSPropertyOp45
 70
     1
102
RTVSPropertyOp46
 70
     1
102
RTVSPropertyOp47
 70
     1
102
RTVSPropertyOp48
 70
     1
102
RTVSPropertyOp49
 70
     1
102
RTVSPropertyOp50
 70
     1
102
RTVSPropertyOp51
 70
     0
102
RTVSPropertyOp52
 70
     0
102
RTVSPropertyOp53
 70
     1
102
RTVSPropertyOp54
 70
     1
102
RTVSPropertyOp55
 70
     1
102
RTVSPropertyOp56
 70
     1
102
RTVSPropertyOp57
 70
     1
102
RTVSPost2010Prop28
280
     0
102
RTVSPost2010PropOp28
 70
     1
102
RTVSPost2010Prop29
280
     1
102
RTVSPost2010PropOp29
 70
     1
102
RTVSPost2010Prop30
280
     1
102
RTVSPost2010PropOp30
 70
     1
102
RTVSPost2010Prop31
280
     0
102
RTVSPost2010PropOp31
 70
     1
102
RTVSPost2010Prop32
280
     0
102
RTVSPost2010PropOp32
 70
     1
102
RTVSPost2010Prop33
280
     0
102
RTVSPost2010PropOp33
 70
     1
102
RTVSPost2010Prop34
280
     0
102
RTVSPost2010PropOp34
 70
     1
102
RTVSPost2010Prop35
280
     0
102
RTVSPost2010PropOp35
 70
     1
102
RTVSPost2010Prop36
280
     0
102
RTVSPost2010PropOp36
 70
     1
102
RTVSPost2010Prop37
 90
       50
102
RTVSPost2010PropOp37
 70
     1
102
RTVSPost2010Prop38
140
0.0
102
RTVSPost2010PropOp38
 70
     1
102
RTVSPost2010Prop39
140
1.0
102
RTVSPost2010PropOp39
 70
     1
102
RTVSPost2010Prop40
 90
        0
102
RTVSPost2010PropOp40
 70
     1
102
RTVSPost2010Prop41ColorIndex
 90
       18
102
RTVSPost2010Prop41ColorRGB
 90
        0
102
RTVSPost2010PropOp41
 70
     1
102
RTVSPost2010Prop42
 90
       50
102
RTVSPost2010PropOp42
 70
     1
102
RTVSPost2010Prop43
 90
        3
102
RTVSPost2010PropOp43
 70
     1
102
RTVSPost2010Prop44ColorIndex
 90
        5
102
RTVSPost2010Prop44ColorRGB
 90
      255
102
RTVSPost2010PropOp44
 70
     1
102
RTVSPost2010Prop45
280
     0
102
RTVSPost2010PropOp45
 70
     1
102
RTVSPost2010Prop46
 90
       50
102
RTVSPost2010PropOp46
 70
     1
102
RTVSPost2010Prop47
 90
       50
102
RTVSPost2010PropOp47
 70
     1
102
RTVSPost2010Prop48
 90
       50
102
RTVSPost2010PropOp48
 70
     1
102
RTVSPost2010Prop49
280
     0
102
RTVSPost2010PropOp49
 70
     1
102
RTVSPost2010Prop50
 90
       50
102
RTVSPost2010PropOp50
 70
     1
102
RTVSPost2010Prop51ColorIndex
 90
      256
102
RTVSPost2010Prop51ColorRGB
 90
-16777216
102
RTVSPost2010PropOp51
 70
     0
102
RTVSPost2010Prop52
140
1.0
102
RTVSPost2010PropOp52
 70
     0
102
RTVSPost2010Prop53
 90
        2
102
RTVSPost2010PropOp53
 70
     1
102
RTVSPost2010Prop54
  1
strokes_ogs.tif
102
RTVSPost2010PropOp54
 70
     1
102
RTVSPost2010Prop55
280
     0
102
RTVSPost2010PropOp55
 70
     1
102
RTVSPost2010Prop56
140
1.0
102
RTVSPost2010PropOp56
 70
     1
102
RTVSPost2010Prop57
140
1.0
102
RTVSPost2010PropOp57
 70
     1
  0
XRECORD
  5
461
102
{ACAD_REACTORS
330
460
102
}
330
460
100
AcDbXrecord
280
     1
102
RTVSPropertyOp0
 70
     1
102
RTVSPropertyOp1
 70
     1
102
RTVSPropertyOp2
 70
     1
102
RTVSPropertyOp3
 70
     1
102
RTVSPropertyOp4
 70
     1
102
RTVSPropertyOp5
 70
     1
102
RTVSPropertyOp6
 70
     1
102
RTVSPropertyOp7
 70
     1
102
RTVSPropertyOp8
 70
     1
102
RTVSPropertyOp9
 70
     1
102
RTVSPropertyOp10
 70
     1
102
RTVSPropertyOp11
 70
     1
102
RTVSPropertyOp12
 70
     1
102
RTVSPropertyOp13
 70
     1
102
RTVSPropertyOp14
 70
     1
102
RTVSPropertyOp15
 70
     1
102
RTVSPropertyOp16
 70
     1
102
RTVSPropertyOp17
 70
     1
102
RTVSPropertyOp18
 70
     1
102
RTVSPropertyOp19
 70
     1
102
RTVSPropertyOp20
 70
     1
102
RTVSPropertyOp21
 70
     1
102
RTVSPropertyOp22
 70
     1
102
RTVSPropertyOp23
 70
     1
102
RTVSPropertyOp24
 70
     1
102
RTVSPropertyOp25
 70
     1
102
RTVSPropertyOp26
 70
     1
102
RTVSPropertyOp27
 70
     1
102
RTVSPropertyOp28
 70
     1
102
RTVSPropertyOp29
 70
     1
102
RTVSPropertyOp30
 70
     1
102
RTVSPropertyOp31
 70
     1
102
RTVSPropertyOp32
 70
     1
102
RTVSPropertyOp33
 70
     1
102
RTVSPropertyOp34
 70
     1
102
RTVSPropertyOp35
 70
     1
102
RTVSPropertyOp36
 70
     1
102
RTVSPropertyOp37
 70
     1
102
RTVSPropertyOp38
 70
     1
102
RTVSPropertyOp39
 70
     1
102
RTVSPropertyOp40
 70
     1
102
RTVSPropertyOp41
 70
     1
102
RTVSPropertyOp42
 70
     1
102
RTVSPropertyOp43
 70
     1
102
RTVSPropertyOp44
 70
     1
102
RTVSPropertyOp45
 70
     1
102
RTVSPropertyOp46
 70
     1
102
RTVSPropertyOp47
 70
     1
102
RTVSPropertyOp48
 70
     1
102
RTVSPropertyOp49
 70
     1
102
RTVSPropertyOp50
 70
     1
102
RTVSPropertyOp51
 70
     0
102
RTVSPropertyOp52
 70
     0
102
RTVSPropertyOp53
 70
     1
102
RTVSPropertyOp54
 70
     1
102
RTVSPropertyOp55
 70
     1
102
RTVSPropertyOp56
 70
     1
102
RTVSPropertyOp57
 70
     1
102
RTVSPost2010Prop28
280
     0
102
RTVSPost2010PropOp28
 70
     1
102
RTVSPost2010Prop29
280
     1
102
RTVSPost2010PropOp29
 70
     1
102
RTVSPost2010Prop30
280
     1
102
RTVSPost2010PropOp30
 70
     1
102
RTVSPost2010Prop31
280
     0
102
RTVSPost2010PropOp31
 70
     1
102
RTVSPost2010Prop32
280
     0
102
RTVSPost2010PropOp32
 70
     1
102
RTVSPost2010Prop33
280
     0
102
RTVSPost2010PropOp33
 70
     1
102
RTVSPost2010Prop34
280
     0
102
RTVSPost2010PropOp34
 70
     1
102
RTVSPost2010Prop35
280
     0
102
RTVSPost2010PropOp35
 70
     1
102
RTVSPost2010Prop36
280
     0
102
RTVSPost2010PropOp36
 70
     1
102
RTVSPost2010Prop37
 90
       50
102
RTVSPost2010PropOp37
 70
     1
102
RTVSPost2010Prop38
140
0.0
102
RTVSPost2010PropOp38
 70
     1
102
RTVSPost2010Prop39
140
1.0
102
RTVSPost2010PropOp39
 70
     1
102
RTVSPost2010Prop40
 90
        0
102
RTVSPost2010PropOp40
 70
     1
102
RTVSPost2010Prop41ColorIndex
 90
       18
102
RTVSPost2010Prop41ColorRGB
 90
        0
102
RTVSPost2010PropOp41
 70
     1
102
RTVSPost2010Prop42
 90
       50
102
RTVSPost2010PropOp42
 70
     1
102
RTVSPost2010Prop43
 90
        3
102
RTVSPost2010PropOp43
 70
     1
102
RTVSPost2010Prop44ColorIndex
 90
        5
102
RTVSPost2010Prop44ColorRGB
 90
      255
102
RTVSPost2010PropOp44
 70
     1
102
RTVSPost2010Prop45
280
     0
102
RTVSPost2010PropOp45
 70
     1
102
RTVSPost2010Prop46
 90
       50
102
RTVSPost2010PropOp46
 70
     1
102
RTVSPost2010Prop47
 90
       50
102
RTVSPost2010PropOp47
 70
     1
102
RTVSPost2010Prop48
 90
       50
102
RTVSPost2010PropOp48
 70
     1
102
RTVSPost2010Prop49
280
     0
102
RTVSPost2010PropOp49
 70
     1
102
RTVSPost2010Prop50
 90
       50
102
RTVSPost2010PropOp50
 70
     1
102
RTVSPost2010Prop51ColorIndex
 90
      256
102
RTVSPost2010Prop51ColorRGB
 90
-16777216
102
RTVSPost2010PropOp51
 70
     0
102
RTVSPost2010Prop52
140
1.0
102
RTVSPost2010PropOp52
 70
     0
102
RTVSPost2010Prop53
 90
        2
102
RTVSPost2010PropOp53
 70
     1
102
RTVSPost2010Prop54
  1
strokes_ogs.tif
102
RTVSPost2010PropOp54
 70
     1
102
RTVSPost2010Prop55
280
     0
102
RTVSPost2010PropOp55
 70
     1
102
RTVSPost2010Prop56
140
1.0
102
RTVSPost2010PropOp56
 70
     1
102
RTVSPost2010Prop57
140
1.0
102
RTVSPost2010PropOp57
 70
     1
  0
XRECORD
  5
451
102
{ACAD_REACTORS
330
450
102
}
330
450
100
AcDbXrecord
280
     1
102
RTVSPropertyOp0
 70
     1
102
RTVSPropertyOp1
 70
     1
102
RTVSPropertyOp2
 70
     1
102
RTVSPropertyOp3
 70
     1
102
RTVSPropertyOp4
 70
     1
102
RTVSPropertyOp5
 70
     1
102
RTVSPropertyOp6
 70
     1
102
RTVSPropertyOp7
 70
     1
102
RTVSPropertyOp8
 70
     1
102
RTVSPropertyOp9
 70
     1
102
RTVSPropertyOp10
 70
     1
102
RTVSPropertyOp11
 70
     1
102
RTVSPropertyOp12
 70
     1
102
RTVSPropertyOp13
 70
     1
102
RTVSPropertyOp14
 70
     1
102
RTVSPropertyOp15
 70
     1
102
RTVSPropertyOp16
 70
     1
102
RTVSPropertyOp17
 70
     1
102
RTVSPropertyOp18
 70
     1
102
RTVSPropertyOp19
 70
     1
102
RTVSPropertyOp20
 70
     1
102
RTVSPropertyOp21
 70
     1
102
RTVSPropertyOp22
 70
     1
102
RTVSPropertyOp23
 70
     1
102
RTVSPropertyOp24
 70
     1
102
RTVSPropertyOp25
 70
     1
102
RTVSPropertyOp26
 70
     1
102
RTVSPropertyOp27
 70
     1
102
RTVSPropertyOp28
 70
     1
102
RTVSPropertyOp29
 70
     1
102
RTVSPropertyOp30
 70
     1
102
RTVSPropertyOp31
 70
     1
102
RTVSPropertyOp32
 70
     1
102
RTVSPropertyOp33
 70
     1
102
RTVSPropertyOp34
 70
     1
102
RTVSPropertyOp35
 70
     1
102
RTVSPropertyOp36
 70
     1
102
RTVSPropertyOp37
 70
     1
102
RTVSPropertyOp38
 70
     1
102
RTVSPropertyOp39
 70
     1
102
RTVSPropertyOp40
 70
     1
102
RTVSPropertyOp41
 70
     1
102
RTVSPropertyOp42
 70
     1
102
RTVSPropertyOp43
 70
     1
102
RTVSPropertyOp44
 70
     1
102
RTVSPropertyOp45
 70
     1
102
RTVSPropertyOp46
 70
     1
102
RTVSPropertyOp47
 70
     1
102
RTVSPropertyOp48
 70
     1
102
RTVSPropertyOp49
 70
     1
102
RTVSPropertyOp50
 70
     1
102
RTVSPropertyOp51
 70
     0
102
RTVSPropertyOp52
 70
     0
102
RTVSPropertyOp53
 70
     1
102
RTVSPropertyOp54
 70
     1
102
RTVSPropertyOp55
 70
     1
102
RTVSPropertyOp56
 70
     1
102
RTVSPropertyOp57
 70
     1
102
RTVSPost2010Prop28
280
     0
102
RTVSPost2010PropOp28
 70
     1
102
RTVSPost2010Prop29
280
     1
102
RTVSPost2010PropOp29
 70
     1
102
RTVSPost2010Prop30
280
     1
102
RTVSPost2010PropOp30
 70
     1
102
RTVSPost2010Prop31
280
     0
102
RTVSPost2010PropOp31
 70
     1
102
RTVSPost2010Prop32
280
     0
102
RTVSPost2010PropOp32
 70
     1
102
RTVSPost2010Prop33
280
     0
102
RTVSPost2010PropOp33
 70
     1
102
RTVSPost2010Prop34
280
     0
102
RTVSPost2010PropOp34
 70
     1
102
RTVSPost2010Prop35
280
     0
102
RTVSPost2010PropOp35
 70
     1
102
RTVSPost2010Prop36
280
     0
102
RTVSPost2010PropOp36
 70
     1
102
RTVSPost2010Prop37
 90
       50
102
RTVSPost2010PropOp37
 70
     1
102
RTVSPost2010Prop38
140
0.0
102
RTVSPost2010PropOp38
 70
     1
102
RTVSPost2010Prop39
140
1.0
102
RTVSPost2010PropOp39
 70
     1
102
RTVSPost2010Prop40
 90
        0
102
RTVSPost2010PropOp40
 70
     1
102
RTVSPost2010Prop41ColorIndex
 90
       18
102
RTVSPost2010Prop41ColorRGB
 90
        0
102
RTVSPost2010PropOp41
 70
     1
102
RTVSPost2010Prop42
 90
       50
102
RTVSPost2010PropOp42
 70
     1
102
RTVSPost2010Prop43
 90
        3
102
RTVSPost2010PropOp43
 70
     1
102
RTVSPost2010Prop44ColorIndex
 90
        5
102
RTVSPost2010Prop44ColorRGB
 90
      255
102
RTVSPost2010PropOp44
 70
     1
102
RTVSPost2010Prop45
280
     0
102
RTVSPost2010PropOp45
 70
     1
102
RTVSPost2010Prop46
 90
       50
102
RTVSPost2010PropOp46
 70
     1
102
RTVSPost2010Prop47
 90
       50
102
RTVSPost2010PropOp47
 70
     1
102
RTVSPost2010Prop48
 90
       50
102
RTVSPost2010PropOp48
 70
     1
102
RTVSPost2010Prop49
280
     0
102
RTVSPost2010PropOp49
 70
     1
102
RTVSPost2010Prop50
 90
       50
102
RTVSPost2010PropOp50
 70
     1
102
RTVSPost2010Prop51ColorIndex
 90
      256
102
RTVSPost2010Prop51ColorRGB
 90
-16777216
102
RTVSPost2010PropOp51
 70
     0
102
RTVSPost2010Prop52
140
1.0
102
RTVSPost2010PropOp52
 70
     0
102
RTVSPost2010Prop53
 90
        2
102
RTVSPost2010PropOp53
 70
     1
102
RTVSPost2010Prop54
  1
strokes_ogs.tif
102
RTVSPost2010PropOp54
 70
     1
102
RTVSPost2010Prop55
280
     0
102
RTVSPost2010PropOp55
 70
     1
102
RTVSPost2010Prop56
140
1.0
102
RTVSPost2010PropOp56
 70
     1
102
RTVSPost2010Prop57
140
1.0
102
RTVSPost2010PropOp57
 70
     1
  0
XRECORD
  5
443
102
{ACAD_REACTORS
330
442
102
}
330
442
100
AcDbXrecord
280
     1
102
RTVSPropertyOp0
 70
     1
102
RTVSPropertyOp1
 70
     1
102
RTVSPropertyOp2
 70
     1
102
RTVSPropertyOp3
 70
     1
102
RTVSPropertyOp4
 70
     1
102
RTVSPropertyOp5
 70
     1
102
RTVSPropertyOp6
 70
     1
102
RTVSPropertyOp7
 70
     1
102
RTVSPropertyOp8
 70
     1
102
RTVSPropertyOp9
 70
     1
102
RTVSPropertyOp10
 70
     1
102
RTVSPropertyOp11
 70
     1
102
RTVSPropertyOp12
 70
     1
102
RTVSPropertyOp13
 70
     1
102
RTVSPropertyOp14
 70
     1
102
RTVSPropertyOp15
 70
     1
102
RTVSPropertyOp16
 70
     1
102
RTVSPropertyOp17
 70
     1
102
RTVSPropertyOp18
 70
     1
102
RTVSPropertyOp19
 70
     1
102
RTVSPropertyOp20
 70
     1
102
RTVSPropertyOp21
 70
     1
102
RTVSPropertyOp22
 70
     1
102
RTVSPropertyOp23
 70
     1
102
RTVSPropertyOp24
 70
     1
102
RTVSPropertyOp25
 70
     1
102
RTVSPropertyOp26
 70
     1
102
RTVSPropertyOp27
 70
     1
102
RTVSPropertyOp28
 70
     1
102
RTVSPropertyOp29
 70
     1
102
RTVSPropertyOp30
 70
     1
102
RTVSPropertyOp31
 70
     1
102
RTVSPropertyOp32
 70
     1
102
RTVSPropertyOp33
 70
     1
102
RTVSPropertyOp34
 70
     1
102
RTVSPropertyOp35
 70
     1
102
RTVSPropertyOp36
 70
     1
102
RTVSPropertyOp37
 70
     1
102
RTVSPropertyOp38
 70
     1
102
RTVSPropertyOp39
 70
     1
102
RTVSPropertyOp40
 70
     1
102
RTVSPropertyOp41
 70
     1
102
RTVSPropertyOp42
 70
     1
102
RTVSPropertyOp43
 70
     1
102
RTVSPropertyOp44
 70
     1
102
RTVSPropertyOp45
 70
     1
102
RTVSPropertyOp46
 70
     1
102
RTVSPropertyOp47
 70
     1
102
RTVSPropertyOp48
 70
     1
102
RTVSPropertyOp49
 70
     1
102
RTVSPropertyOp50
 70
     1
102
RTVSPropertyOp51
 70
     0
102
RTVSPropertyOp52
 70
     0
102
RTVSPropertyOp53
 70
     1
102
RTVSPropertyOp54
 70
     1
102
RTVSPropertyOp55
 70
     1
102
RTVSPropertyOp56
 70
     1
102
RTVSPropertyOp57
 70
     1
102
RTVSPost2010Prop28
280
     0
102
RTVSPost2010PropOp28
 70
     1
102
RTVSPost2010Prop29
280
     1
102
RTVSPost2010PropOp29
 70
     1
102
RTVSPost2010Prop30
280
     1
102
RTVSPost2010PropOp30
 70
     1
102
RTVSPost2010Prop31
280
     0
102
RTVSPost2010PropOp31
 70
     1
102
RTVSPost2010Prop32
280
     0
102
RTVSPost2010PropOp32
 70
     1
102
RTVSPost2010Prop33
280
     0
102
RTVSPost2010PropOp33
 70
     1
102
RTVSPost2010Prop34
280
     0
102
RTVSPost2010PropOp34
 70
     1
102
RTVSPost2010Prop35
280
     0
102
RTVSPost2010PropOp35
 70
     1
102
RTVSPost2010Prop36
280
     0
102
RTVSPost2010PropOp36
 70
     1
102
RTVSPost2010Prop37
 90
       50
102
RTVSPost2010PropOp37
 70
     1
102
RTVSPost2010Prop38
140
0.0
102
RTVSPost2010PropOp38
 70
     1
102
RTVSPost2010Prop39
140
1.0
102
RTVSPost2010PropOp39
 70
     1
102
RTVSPost2010Prop40
 90
        0
102
RTVSPost2010PropOp40
 70
     1
102
RTVSPost2010Prop41ColorIndex
 90
       18
102
RTVSPost2010Prop41ColorRGB
 90
        0
102
RTVSPost2010PropOp41
 70
     1
102
RTVSPost2010Prop42
 90
       50
102
RTVSPost2010PropOp42
 70
     1
102
RTVSPost2010Prop43
 90
        3
102
RTVSPost2010PropOp43
 70
     1
102
RTVSPost2010Prop44ColorIndex
 90
        5
102
RTVSPost2010Prop44ColorRGB
 90
      255
102
RTVSPost2010PropOp44
 70
     1
102
RTVSPost2010Prop45
280
     0
102
RTVSPost2010PropOp45
 70
     1
102
RTVSPost2010Prop46
 90
       50
102
RTVSPost2010PropOp46
 70
     1
102
RTVSPost2010Prop47
 90
       50
102
RTVSPost2010PropOp47
 70
     1
102
RTVSPost2010Prop48
 90
       50
102
RTVSPost2010PropOp48
 70
     1
102
RTVSPost2010Prop49
280
     0
102
RTVSPost2010PropOp49
 70
     1
102
RTVSPost2010Prop50
 90
       50
102
RTVSPost2010PropOp50
 70
     1
102
RTVSPost2010Prop51ColorIndex
 90
      256
102
RTVSPost2010Prop51ColorRGB
 90
-16777216
102
RTVSPost2010PropOp51
 70
     0
102
RTVSPost2010Prop52
140
1.0
102
RTVSPost2010PropOp52
 70
     0
102
RTVSPost2010Prop53
 90
        2
102
RTVSPost2010PropOp53
 70
     1
102
RTVSPost2010Prop54
  1
strokes_ogs.tif
102
RTVSPost2010PropOp54
 70
     1
102
RTVSPost2010Prop55
280
     0
102
RTVSPost2010PropOp55
 70
     1
102
RTVSPost2010Prop56
140
1.0
102
RTVSPost2010PropOp56
 70
     1
102
RTVSPost2010Prop57
140
1.0
102
RTVSPost2010PropOp57
 70
     1
  0
XRECORD
  5
463
102
{ACAD_REACTORS
330
462
102
}
330
462
100
AcDbXrecord
280
     1
102
RTVSPropertyOp0
 70
     1
102
RTVSPropertyOp1
 70
     1
102
RTVSPropertyOp2
 70
     1
102
RTVSPropertyOp3
 70
     1
102
RTVSPropertyOp4
 70
     1
102
RTVSPropertyOp5
 70
     1
102
RTVSPropertyOp6
 70
     1
102
RTVSPropertyOp7
 70
     1
102
RTVSPropertyOp8
 70
     1
102
RTVSPropertyOp9
 70
     1
102
RTVSPropertyOp10
 70
     1
102
RTVSPropertyOp11
 70
     1
102
RTVSPropertyOp12
 70
     1
102
RTVSPropertyOp13
 70
     1
102
RTVSPropertyOp14
 70
     1
102
RTVSPropertyOp15
 70
     1
102
RTVSPropertyOp16
 70
     1
102
RTVSPropertyOp17
 70
     1
102
RTVSPropertyOp18
 70
     1
102
RTVSPropertyOp19
 70
     1
102
RTVSPropertyOp20
 70
     1
102
RTVSPropertyOp21
 70
     1
102
RTVSPropertyOp22
 70
     1
102
RTVSPropertyOp23
 70
     1
102
RTVSPropertyOp24
 70
     1
102
RTVSPropertyOp25
 70
     1
102
RTVSPropertyOp26
 70
     1
102
RTVSPropertyOp27
 70
     1
102
RTVSPropertyOp28
 70
     1
102
RTVSPropertyOp29
 70
     1
102
RTVSPropertyOp30
 70
     1
102
RTVSPropertyOp31
 70
     1
102
RTVSPropertyOp32
 70
     1
102
RTVSPropertyOp33
 70
     1
102
RTVSPropertyOp34
 70
     1
102
RTVSPropertyOp35
 70
     1
102
RTVSPropertyOp36
 70
     1
102
RTVSPropertyOp37
 70
     1
102
RTVSPropertyOp38
 70
     1
102
RTVSPropertyOp39
 70
     1
102
RTVSPropertyOp40
 70
     1
102
RTVSPropertyOp41
 70
     1
102
RTVSPropertyOp42
 70
     1
102
RTVSPropertyOp43
 70
     1
102
RTVSPropertyOp44
 70
     1
102
RTVSPropertyOp45
 70
     1
102
RTVSPropertyOp46
 70
     1
102
RTVSPropertyOp47
 70
     1
102
RTVSPropertyOp48
 70
     1
102
RTVSPropertyOp49
 70
     1
102
RTVSPropertyOp50
 70
     1
102
RTVSPropertyOp51
 70
     0
102
RTVSPropertyOp52
 70
     0
102
RTVSPropertyOp53
 70
     1
102
RTVSPropertyOp54
 70
     1
102
RTVSPropertyOp55
 70
     1
102
RTVSPropertyOp56
 70
     1
102
RTVSPropertyOp57
 70
     1
102
RTVSPost2010Prop28
280
     0
102
RTVSPost2010PropOp28
 70
     1
102
RTVSPost2010Prop29
280
     1
102
RTVSPost2010PropOp29
 70
     1
102
RTVSPost2010Prop30
280
     1
102
RTVSPost2010PropOp30
 70
     1
102
RTVSPost2010Prop31
280
     0
102
RTVSPost2010PropOp31
 70
     1
102
RTVSPost2010Prop32
280
     0
102
RTVSPost2010PropOp32
 70
     1
102
RTVSPost2010Prop33
280
     0
102
RTVSPost2010PropOp33
 70
     1
102
RTVSPost2010Prop34
280
     0
102
RTVSPost2010PropOp34
 70
     1
102
RTVSPost2010Prop35
280
     0
102
RTVSPost2010PropOp35
 70
     1
102
RTVSPost2010Prop36
280
     0
102
RTVSPost2010PropOp36
 70
     1
102
RTVSPost2010Prop37
 90
       50
102
RTVSPost2010PropOp37
 70
     1
102
RTVSPost2010Prop38
140
0.0
102
RTVSPost2010PropOp38
 70
     1
102
RTVSPost2010Prop39
140
1.0
102
RTVSPost2010PropOp39
 70
     1
102
RTVSPost2010Prop40
 90
        0
102
RTVSPost2010PropOp40
 70
     1
102
RTVSPost2010Prop41ColorIndex
 90
       18
102
RTVSPost2010Prop41ColorRGB
 90
        0
102
RTVSPost2010PropOp41
 70
     1
102
RTVSPost2010Prop42
 90
       50
102
RTVSPost2010PropOp42
 70
     1
102
RTVSPost2010Prop43
 90
        3
102
RTVSPost2010PropOp43
 70
     1
102
RTVSPost2010Prop44ColorIndex
 90
        5
102
RTVSPost2010Prop44ColorRGB
 90
      255
102
RTVSPost2010PropOp44
 70
     1
102
RTVSPost2010Prop45
280
     0
102
RTVSPost2010PropOp45
 70
     1
102
RTVSPost2010Prop46
 90
       50
102
RTVSPost2010PropOp46
 70
     1
102
RTVSPost2010Prop47
 90
       50
102
RTVSPost2010PropOp47
 70
     1
102
RTVSPost2010Prop48
 90
       50
102
RTVSPost2010PropOp48
 70
     1
102
RTVSPost2010Prop49
280
     0
102
RTVSPost2010PropOp49
 70
     1
102
RTVSPost2010Prop50
 90
       50
102
RTVSPost2010PropOp50
 70
     1
102
RTVSPost2010Prop51ColorIndex
 90
      256
102
RTVSPost2010Prop51ColorRGB
 90
-16777216
102
RTVSPost2010PropOp51
 70
     0
102
RTVSPost2010Prop52
140
1.0
102
RTVSPost2010PropOp52
 70
     0
102
RTVSPost2010Prop53
 90
        2
102
RTVSPost2010PropOp53
 70
     1
102
RTVSPost2010Prop54
  1
strokes_ogs.tif
102
RTVSPost2010PropOp54
 70
     1
102
RTVSPost2010Prop55
280
     0
102
RTVSPost2010PropOp55
 70
     1
102
RTVSPost2010Prop56
140
1.0
102
RTVSPost2010PropOp56
 70
     1
102
RTVSPost2010Prop57
140
1.0
102
RTVSPost2010PropOp57
 70
     1
  0
ENDSEC
  0
EOF
